Browse Collections Artists Sources   Search Dates

Add Show    List Management    Help


Grateful Dead 11/30/79
Stanley Theater, Pittsburgh, PA
Comments Add Comment    Source Collectors    Add to Collection    Add to Want List    History
Source # 76348 Other Sources
Entered by dr.unclear
Checksums shn-md5 , st5
Disc Counts 2 / 3
Media Size
Date Circulated
Date Added
08/04/2006
08/04/2006
Source Summary Recording by Charlie Connor: (FOB, 10th Row Center Stage)>Sony ECM 990>JVC 1636mkII(CM)Transfer:Nak DR-10 (Playback)>Midiman Flying Cow 24bit/48kHz A/D>RME Digi96/8>Steinberg's Wavelab 3.0 (bit resolution & resampling to CDR redbook 16/44.1>CDWav beta1.57 (tracking only)>SHNv3 (MKW ACT)Taped and Transferred by Charlie Connor 
  Archive
Source Information - Download Text | Download Zip
Grateful Dead
Stanley Theater
Pittsburgh PA
November 30, 1979

Source:
(FOB, 10th Row Center Stage)>Sony ECM 990>JVC 1636mkII(CM)
Transfer:
Nak DR-10 (Playback)>Midiman Flying Cow 24bit/48kHz A/D>RME Digi96/8>
Steinberg's Wavelab 3.0 (bit resolution & resampling to CDR
redbook 16/44.1>CDWav beta1.57 (tracking only)>SHNv3 (MKW ACT)

Taped and Transferred by Charlie Connor

Seeded to Etree's BT August 4, 2006


First Set
CD1
1. Alabama Getaway>
2. Greatest Story Ever Told
3. Peggy-oo
4. Cassidy
5. Friend Of The Devil
6. Easy To Love You
7. El Paso
8. Tennessee Jed
9. Dancin' In The Streets>
10. Deal

Second Set
CD2
1. Scarlet Begonias>
2. Fire On The Mountain
3. Passenger
4. Terrapin Station>
5. Playin' In The Band>
6. Drums
CD3
1. Space>
2. Lost Sailor>
3. Saint Of Circumstance>
4. Wharf Rat>
5. Good Lovin'
Encore:
6. Don't Ease Me In

Shnlen Output:
length     expanded size   cdr  WAVE problems filename
     8:44.55       92563004    ---   --   ---xx   gd79-11-30d1t01.shn
     6:11.52       65566748    ---   --   ---xx   gd79-11-30d1t02.shn
     7:35.62       80407868    ---   --   ---xx   gd79-11-30d1t03.shn
     5:25.10       57353564    ---   --   ---xx   gd79-11-30d1t04.shn
     9:05.57       96272108    ---   --   ---xx   gd79-11-30d1t05.shn
     4:02.62       42834668    ---   --   ---xx   gd79-11-30d1t06.shn
     4:40.38       49481420    ---   --   ---xx   gd79-11-30d1t07.shn
     9:56.53      105259100    ---   --   ---xx   gd79-11-30d1t08.shn
    14:38.31      154952156    ---   --   ---xx   gd79-11-30d1t09.shn
     5:57.09       62996012    ---   --   ---xx   gd79-11-30d1t10.shn
    15:01.26      158997596    ---   --   ---xx   gd79-11-30d2t01.shn
    10:11.03      107787500    ---   --   ---xx   gd79-11-30d2t02.shn
     5:40.48       60088940    ---   --   ---xx   gd79-11-30d2t03.shn
    13:48.64      146209772    ---   --   ---xx   gd79-11-30d2t04.shn
    14:09.35      149845964    ---   --   ---xx   gd79-11-30d2t05.shn
     8:56.59       94689212    ---   --   ---xx   gd79-11-30d2t06.shn
     6:05.16       64423676    ---   --   ---xx   gd79-11-30d3t01.shn
     6:36.31       69927356    ---   --   ---xx   gd79-11-30d3t02.shn
     5:44.21       60731036    ---   --   ---xx   gd79-11-30d3t03.shn
    10:06.36      106983116    ---   --   ---xx   gd79-11-30d3t04.shn
     7:48.31       82628156    ---   --   ---xx   gd79-11-30d3t05.shn
     5:23.67       57134828    ---   --   ---xx   gd79-11-30d3t06.shn
   185:51.41     1967133800 B  (totals for 22 files, 0.6225 overall compression ratio)

Md5 signature:

274b5b71ff0b99fd215163e08d09550a *gd79-11-30d1t04.shn
ecceb10ac94e842a3bdc8d511ddbcb56 *gd79-11-30d1t02.shn
44e37516bd06e54dadbe8aa2f1d24c97 *gd79-11-30d1t03.shn
2e4cc047a1fd73f6cbc6da2b3088fb73 *gd79-11-30d1t01.shn
5ad3bee14c0754c064bfe67b91d1b923 *gd79-11-30d1t05.shn
5bbfb1d94484b2544f395f142fec9dec *gd79-11-30d1t06.shn
ac21161675a888a57ccd706469a71195 *gd79-11-30d1t07.shn
82843bffa5965853f15036101be76c46 *gd79-11-30d1t08.shn
9792bd7a9e4e096773aff896822fc871 *gd79-11-30d1t09.shn
032f1f357561715d6132dd50588f0ba4 *gd79-11-30d1t10.shn
8cc51644c933bb127d51b434a14ae0d9 *gd79-11-30d2t02.shn
c4e9d652303eb1ac5c907968ec3b6fed *gd79-11-30d2t01.shn
92bbfe38c89774e87662a3fb14509fe4 *gd79-11-30d2t03.shn
a51524f93caec0f95f1c9a6b4fbf7e96 *gd79-11-30d2t04.shn
0d8e42a4f9bfadbe704f975ba2758606 *gd79-11-30d2t05.shn
77328a667a7f32f34840ae1b9f11aec5 *gd79-11-30d2t06.shn
bd4c06f6ce8e3c4848de058008f09cf6 *gd79-11-30d3t03.shn
0303ecf1da398c5abe2ca058a926b9af *gd79-11-30d3t02.shn
34b1b899000699b90bf31619ab073e46 *gd79-11-30d3t01.shn
4610fee5751d7fc971ecd4b3af226a1c *gd79-11-30d3t04.shn
9617f6e584c20aa10f0d441239f9522e *gd79-11-30d3t05.shn
582211db7e22541589df567348cf43a2 *gd79-11-30d3t06.shn





Show Checksums
shn-md5
274b5b71ff0b99fd215163e08d09550a *gd79-11-30d1t04.shn
ecceb10ac94e842a3bdc8d511ddbcb56 *gd79-11-30d1t02.shn
44e37516bd06e54dadbe8aa2f1d24c97 *gd79-11-30d1t03.shn
2e4cc047a1fd73f6cbc6da2b3088fb73 *gd79-11-30d1t01.shn
5ad3bee14c0754c064bfe67b91d1b923 *gd79-11-30d1t05.shn
5bbfb1d94484b2544f395f142fec9dec *gd79-11-30d1t06.shn
ac21161675a888a57ccd706469a71195 *gd79-11-30d1t07.shn
82843bffa5965853f15036101be76c46 *gd79-11-30d1t08.shn
9792bd7a9e4e096773aff896822fc871 *gd79-11-30d1t09.shn
032f1f357561715d6132dd50588f0ba4 *gd79-11-30d1t10.shn
8cc51644c933bb127d51b434a14ae0d9 *gd79-11-30d2t02.shn
c4e9d652303eb1ac5c907968ec3b6fed *gd79-11-30d2t01.shn
92bbfe38c89774e87662a3fb14509fe4 *gd79-11-30d2t03.shn
a51524f93caec0f95f1c9a6b4fbf7e96 *gd79-11-30d2t04.shn
0d8e42a4f9bfadbe704f975ba2758606 *gd79-11-30d2t05.shn
77328a667a7f32f34840ae1b9f11aec5 *gd79-11-30d2t06.shn
bd4c06f6ce8e3c4848de058008f09cf6 *gd79-11-30d3t03.shn
0303ecf1da398c5abe2ca058a926b9af *gd79-11-30d3t02.shn
34b1b899000699b90bf31619ab073e46 *gd79-11-30d3t01.shn
4610fee5751d7fc971ecd4b3af226a1c *gd79-11-30d3t04.shn
9617f6e584c20aa10f0d441239f9522e *gd79-11-30d3t05.shn
582211db7e22541589df567348cf43a2 *gd79-11-30d3t06.shn
st5
7d50d3c007312d6323de6816d0fd36f4 [shntool] gd79-11-30d1t01.shn
c01841c7ff53bc1f125b018e1760146f [shntool] gd79-11-30d1t02.shn
5c625a617f3ce8511be7452122a5c585 [shntool] gd79-11-30d1t03.shn
549c64ec0467790dffac4a1881c418b2 [shntool] gd79-11-30d1t04.shn
b7bfc1b9658cd58bacd8237c4a460c4e [shntool] gd79-11-30d1t05.shn
d923d9ac38bc4a68567d5b2a975663ba [shntool] gd79-11-30d1t06.shn
da960210866cbb31d6927eb615b59698 [shntool] gd79-11-30d1t07.shn
0aa4a6e23001144076511c9367d4b685 [shntool] gd79-11-30d1t08.shn
a5d7f0c9b93a7515d23897eeb3d7b6d1 [shntool] gd79-11-30d1t09.shn
fe4ca2daff634b9edeedced1a4b48267 [shntool] gd79-11-30d1t10.shn
77041c3ef455c246f2f4508b6b498e29 [shntool] gd79-11-30d2t01.shn
8f7fbcd1b3b2f058bf02adfb154b7cce [shntool] gd79-11-30d2t02.shn
9b75c2e86aa7d8dcc320af7d6316f951 [shntool] gd79-11-30d2t03.shn
c58ffc9d5015fc76a794434415891d6a [shntool] gd79-11-30d2t04.shn
98d863c7f493df0eb55dc2d0d12c03d7 [shntool] gd79-11-30d2t05.shn
76ea797ddcdf74e94df4b05b3df4d994 [shntool] gd79-11-30d2t06.shn
0bb2eb0ac11554f6839865a45cfeba8d [shntool] gd79-11-30d3t01.shn
42d52e006c41eab427245d0482dcc009 [shntool] gd79-11-30d3t02.shn
6fca4a308196c953f423819cea4ccfb6 [shntool] gd79-11-30d3t03.shn
e4cfd70f1d9ffd7cf168ab517309b1bd [shntool] gd79-11-30d3t04.shn
57b14d24c79b10f2506bde7cf01ff4a7 [shntool] gd79-11-30d3t05.shn
b5a4505365bc3cbf174854dab3c33c08 [shntool] gd79-11-30d3t06.shn

Comments
Add Comment
Other Sources (comments)
Master Soundboard Cassette... (1) Fixed version of... (0) SBD > DAT > CDREAC'ed /... (1) flac16; SBD ->... (2) Soundboard > Master... (0) flac16; Recording... (0) flac16; 2 Source... (0)
Date User Comment
09/16/2006 AMack Pretty cool performance and all but I've gotten as far as Dancin' in the Streets and there is virtually zero drums in the mix.