Browse Collections Artists Sources   Search Dates

Add Show    List Management    Help


DJ Logic 05/17/99
The Wetlands Lounge, New York, NY
Comments Add Comment    Source Collectors    Add to Collection    Add to Want List    History
Source # 77066 Other Sources
Entered by ziko
Checksums ffp
Disc Counts 1 / 2
Media Size
Date Circulated
Date Added
11/20/05
08/31/2006
Source Summary Source: Neumann TLM170 > Apogee AD1000 > Tascam DA-P1 @ 48 KHz; Transfer: DAT (c) > Sony 59ES > Audiophile 24/96 > Wavelab 5.0 > CDWave > FLAC v.1.7.1 > .flac (6); Transfer by: RasheedWallace 
Source Information - Download Text | Download Zip
Project Logic (#3)
May 17, 1999
Wetlands Lounge
New York, NY

Source:  Neumann TLM170 > Apogee AD1000 > Tascam DA-P1 @ 48 KHz
Taped by:

Transfer:  DAT (c) > Sony 59ES > Audiophile 24/96 > Wavelab 5.0 > CDWave > FLAC v.1.7.1 > .flac (6)
Transfer by:  RasheedWallace

Disc 1 / Set I

01)  Intro
02)  Improv
03)  Improv
04)  Improv
05)  Improv
06)  Improv

Disc 2 / Set II

01)  Intro
02)  Improv
03)  Improv
04)  Improv
05)  Improv
06)  Improv
07)  Improv

Project Logic:
DJ Logic - Turntables
Melvin Gibbs - Bass
Skoota Warner - Drums

Guests:
John Medeski - keyboards/organ
Fuzz - Guitar
Steve Bernstein - Trumpet
Briggan Krauss - Alto Saxaphone
Josh Roseman - Trombone

-----------------------------------
SHNtool Output
    length     expanded size   cdr  WAVE problems filename
     1:08.15       12030524    ---   --   -----   prologic1999-05-17d1t01.wav
    14:08.59      149726012    ---   --   -----   prologic1999-05-17d1t02.wav
    15:33.40      164675324    ---   --   -----   prologic1999-05-17d1t03.wav
    11:36.01      122776796    ---   --   -----   prologic1999-05-17d1t04.wav
     3:52.65       41077724    ---   --   -----   prologic1999-05-17d1t05.wav
    13:45.54      145657052    ---   --   -----   prologic1999-05-17d1t06.wav
     0:44.61        7905116    ---   --   -----   prologic1999-05-17d2t01.wav
    14:51.11      157198316    ---   --   -----   prologic1999-05-17d2t02.wav
     8:28.43       89712380    ---   --   -----   prologic1999-05-17d2t03.wav
     7:17.44       77190332    ---   --   -----   prologic1999-05-17d2t04.wav
    14:00.31      148248956    ---   --   -----   prologic1999-05-17d2t05.wav
    19:56.60      211115564    ---   --   -----   prologic1999-05-17d2t06.wav
     9:32.59      101039612    ---   --   -----   prologic1999-05-17d2t07.wav
   134:57.18        1362.18 MB                    (totals for 13 files, 1.0000 overall compression ratio)

-----------------------------------
FLAC Fingerprint
prologic1999-05-17d1t01.flac:822e61e3f457bd58eb4cc528d14dc444
prologic1999-05-17d1t02.flac:6c249d760d8db69683d7f857b2c338bc
prologic1999-05-17d1t03.flac:e716dab4d3ea6e7b56a97dc4fc13780b
prologic1999-05-17d1t04.flac:9ec97e2d870a535db2f99ae21190392c
prologic1999-05-17d1t05.flac:01389051fbe5659888d23f3a67582eb4
prologic1999-05-17d1t06.flac:d7a805db6482d9ffd7226a4f4dcbb4b5
prologic1999-05-17d2t01.flac:d7790ea2a76b1894778b873be4a20d27
prologic1999-05-17d2t02.flac:7b5d0ab24fe92242bc4e4fdfa34acf0b
prologic1999-05-17d2t03.flac:e81fb5279331d46939dd8f65ddd0cff2
prologic1999-05-17d2t04.flac:702da38c20d133ec20f60d238ca8c00c
prologic1999-05-17d2t05.flac:c4849618b6432c5900e3c79499281de6
prologic1999-05-17d2t06.flac:42bf2784bc4ebd43b3132dde7ad00732
prologic1999-05-17d2t07.flac:6fcf3e3704a53f96dfa2d3803bd715da
-----------------------------------
Show Checksums
ffp
prologic1999-05-17d1t01.flac:822e61e3f457bd58eb4cc528d14dc444
prologic1999-05-17d1t02.flac:6c249d760d8db69683d7f857b2c338bc
prologic1999-05-17d1t03.flac:e716dab4d3ea6e7b56a97dc4fc13780b
prologic1999-05-17d1t04.flac:9ec97e2d870a535db2f99ae21190392c
prologic1999-05-17d1t05.flac:01389051fbe5659888d23f3a67582eb4
prologic1999-05-17d1t06.flac:d7a805db6482d9ffd7226a4f4dcbb4b5
prologic1999-05-17d2t01.flac:d7790ea2a76b1894778b873be4a20d27
prologic1999-05-17d2t02.flac:7b5d0ab24fe92242bc4e4fdfa34acf0b
prologic1999-05-17d2t03.flac:e81fb5279331d46939dd8f65ddd0cff2
prologic1999-05-17d2t04.flac:702da38c20d133ec20f60d238ca8c00c
prologic1999-05-17d2t05.flac:c4849618b6432c5900e3c79499281de6
prologic1999-05-17d2t06.flac:42bf2784bc4ebd43b3132dde7ad00732
prologic1999-05-17d2t07.flac:6fcf3e3704a53f96dfa2d3803bd715da

Comments
Add Comment
Date User Comment