Browse Collections Artists Sources   Search Dates

Add Show    List Management    Help


Grateful Dead 08/12/87
Red Rocks Amphitheatre, Morrison, CO
Comments Add Comment    Source Collectors    Add to Collection    Add to Want List    History
Source # 77164 Other Sources
Entered by dr.unclear
Checksums ffp , flac-md5
Disc Counts 2 / 2
Media Size
Date Circulated
Date Added

09/02/2006
Source Summary flac16; Schoeps CMC 44 cardiods, ORTF > Sony PCM F1, FOB > DAT > TASCAM DA-20 > M-Audio FireWire solo > Soundforge 8.0 wav > Adobe Audition 1.5 > shntool > FLAC (lvl8)  
  Archive
Source Information - Download Text | Download Zip
Grateful Dead
Red Rocks Amphitheatre
Morrison, CO
August 12, 1987

A 16bit 44.1kHz GEM

Source:
Schoeps CMC 44 cardiods, ORTF-> Sony PCM F1, FOB -> DAT

Transfer:
TASCAM DA-20 > M-Audio FireWire solo > Soundforge 8.0 wav
Source and Transfer courtesy of Rich Gastwirt ([email protected])

Edited by James E. ([email protected])
*Adobe Audition 1.5 > shntool > FLAC (lvl8)


Disc 1
Set 1
01. Crowd
02. Hell In A Bucket>
03. Sugaree
04. Never Trust A Woman
05. Cumberland Blues>
06. Mexicali Blues
07. Friend Of The Devil
08. Brother Esau
09. Bird Song>
10. Music Never Stopped

Disc 2
Set 2
01. China Cat>
02. Rider
03. Women Are Smarter>
04. Terrapin>
05. Drums>
06. Space>
07. Other One>
08. Dear Mr. Fantasy>
09. Wharf Rat>
10. Lovelight
11. Crowd

Encore
12. Mighty Quinn


*Adobe Audition 1.5 notes
set1
fade-in
0:00.000 - 0:05.000
unknown noise
27:20.692 - 27:23.411
fade-out
1:06:06.236 - 1:06:09.236

set2
fade-in
0:00.000 - 0:02.000
transcode errors starting @ 41:39.372
scattered throughout the rest of the set.
Several points of clipping fixed.

both sets
de/pre-emphasis -7db freq5225 hi shelf
BBE Process @ 1.5

wav.md5
e71a15d14ef090ae774a099df4e56066 *gd1987-08-12d1t01.wav
5ebc0c1287a4053427c9fecaae368e52 *gd1987-08-12d1t02.wav
c4facc57754ffba1710a0410dab89503 *gd1987-08-12d1t03.wav
ad7513d536f9460fffc7312f71fec10b *gd1987-08-12d1t04.wav
fbeee07d127853b8325ac5b6da35482d *gd1987-08-12d1t05.wav
4410cbd47026f00e09d96c3558ba45fc *gd1987-08-12d1t06.wav
782d04ac0d66512f6542280503eac967 *gd1987-08-12d1t07.wav
09e8bff775e142f0847accdaf1ad08bf *gd1987-08-12d1t08.wav
a14bfa2aa9761b71524005a55f2afe61 *gd1987-08-12d1t09.wav
cfa0789c345504cca09ee3cce0d15e8f *gd1987-08-12d1t10.wav
4b992fe652f977104916ebbc2032eb2a *gd1987-08-12d2t01.wav
4fc7949758049afcc0aad118a5984255 *gd1987-08-12d2t02.wav
8e7e3f5f7ee157baf46a4127c2d84cf2 *gd1987-08-12d2t03.wav
9027ca4c05e0da775331dbd1091f3f86 *gd1987-08-12d2t04.wav
3ee0160c513bf7bf06aa1ed722f4e5ac *gd1987-08-12d2t05.wav
7f5c328c24e2c935aa26a676a27ff7d3 *gd1987-08-12d2t06.wav
dfd2abf0a5e161141b724525602b94bd *gd1987-08-12d2t07.wav
862a6e79711d76de2519fe7bc134199c *gd1987-08-12d2t08.wav
9ed36b1b82de3c65cac6a77db6660861 *gd1987-08-12d2t09.wav
1ecd271656e981b6160e0a5782e83cbf *gd1987-08-12d2t10.wav
a44dccb11bab19942d23dc8c369784fe *gd1987-08-12d2t11.wav
f37e953adf245d940b3800dfd33fd5ab *gd1987-08-12d2t12.wav

all.ffp
gd1987-08-12d1t01.flac:0f9032843690f5f82c25cc6d6a9bb33c
gd1987-08-12d1t02.flac:0dfe7800b0d2d7513a9e58cbc5fe43fe
gd1987-08-12d1t03.flac:1caef9de5091e439ab9a5aa1153e5a05
gd1987-08-12d1t04.flac:30c402c21c0d35d1482ee083279a0064
gd1987-08-12d1t05.flac:7e14753f183bf87f41ef203949968cbc
gd1987-08-12d1t06.flac:1b0489f9bb5d588445e680cd7f16f505
gd1987-08-12d1t07.flac:247e7a8fa5a3d6940429e1fd36529b0b
gd1987-08-12d1t08.flac:fea2357164ee369e955bd31dca3ea03b
gd1987-08-12d1t09.flac:eac17ab09cf8b211fcd86dd2bd212ded
gd1987-08-12d1t10.flac:8f1c7e25570dcb9f33e9c0ffd76f2157
gd1987-08-12d2t01.flac:232cf75572569a095fd33b53f7f43bc0
gd1987-08-12d2t02.flac:f928acbb89c2bf2582af3f96fe499114
gd1987-08-12d2t03.flac:7a363774bedb13145d08cf6adb724816
gd1987-08-12d2t04.flac:3659850da5de5c0e34b67b4b77204489
gd1987-08-12d2t05.flac:82e129c968160758994cd844138609ba
gd1987-08-12d2t06.flac:59bb9d170b1da84d325031ec939aa0f4
gd1987-08-12d2t07.flac:2a339701407fd734084489948ceecac2
gd1987-08-12d2t08.flac:85950dced540569e0f318a5e3976d9bc
gd1987-08-12d2t09.flac:84b7b60164e563a61be4c857664ff9c4
gd1987-08-12d2t10.flac:48c171c08a81dcb71501824d20bcd0c7
gd1987-08-12d2t11.flac:23d9eb01170320787a3c324af4f1b8e9
gd1987-08-12d2t12.flac:f94a7d69f174e7124a57bfc502654f47

shntool.txt
    length     expanded size   cdr  WAVE problems filename
     1:53.10       19956764    ---   --   ---xx   gd1987-08-12d1t01.flac
     6:03.31       64106156    ---   --   ---xx   gd1987-08-12d1t02.flac
    11:42.71      123999836    ---   --   ---xx   gd1987-08-12d1t03.flac
     5:17.59       56057612    ---   --   ---xx   gd1987-08-12d1t04.flac
     4:30.14       47660972    ---   --   ---xx   gd1987-08-12d1t05.flac
     5:27.23       57736940    ---   --   ---xx   gd1987-08-12d1t06.flac
     9:45.55      103323404    ---   --   ---xx   gd1987-08-12d1t07.flac
     4:43.05       49933004    ---   --   ---xx   gd1987-08-12d1t08.flac
     9:13.36       97633916    ---   --   ---xx   gd1987-08-12d1t09.flac
     7:32.14       79765772    ---   --   ---xx   gd1987-08-12d1t10.flac
     4:05.31       43290956    ---   --   ---xx   gd1987-08-12d2t01.flac
     7:22.15       78004124    ---   --   ---xx   gd1987-08-12d2t02.flac
     7:12.67       76362428    ---   --   ---xx   gd1987-08-12d2t03.flac
    11:40.44      123583532    ---   --   ---xx   gd1987-08-12d2t04.flac
     7:22.59       78107612    ---   --   ---xx   gd1987-08-12d2t05.flac
     6:37.58       70167260    ---   --   ---xx   gd1987-08-12d2t06.flac
    
Show Checksums
ffp
gd1987-08-12d1t01.flac:0f9032843690f5f82c25cc6d6a9bb33c
gd1987-08-12d1t02.flac:0dfe7800b0d2d7513a9e58cbc5fe43fe
gd1987-08-12d1t03.flac:1caef9de5091e439ab9a5aa1153e5a05
gd1987-08-12d1t04.flac:30c402c21c0d35d1482ee083279a0064
gd1987-08-12d1t05.flac:7e14753f183bf87f41ef203949968cbc
gd1987-08-12d1t06.flac:1b0489f9bb5d588445e680cd7f16f505
gd1987-08-12d1t07.flac:247e7a8fa5a3d6940429e1fd36529b0b
gd1987-08-12d1t08.flac:fea2357164ee369e955bd31dca3ea03b
gd1987-08-12d1t09.flac:eac17ab09cf8b211fcd86dd2bd212ded
gd1987-08-12d1t10.flac:8f1c7e25570dcb9f33e9c0ffd76f2157
gd1987-08-12d2t01.flac:232cf75572569a095fd33b53f7f43bc0
gd1987-08-12d2t02.flac:f928acbb89c2bf2582af3f96fe499114
gd1987-08-12d2t03.flac:7a363774bedb13145d08cf6adb724816
gd1987-08-12d2t04.flac:3659850da5de5c0e34b67b4b77204489
gd1987-08-12d2t05.flac:82e129c968160758994cd844138609ba
gd1987-08-12d2t06.flac:59bb9d170b1da84d325031ec939aa0f4
gd1987-08-12d2t07.flac:2a339701407fd734084489948ceecac2
gd1987-08-12d2t08.flac:85950dced540569e0f318a5e3976d9bc
gd1987-08-12d2t09.flac:84b7b60164e563a61be4c857664ff9c4
gd1987-08-12d2t10.flac:48c171c08a81dcb71501824d20bcd0c7
gd1987-08-12d2t11.flac:23d9eb01170320787a3c324af4f1b8e9
gd1987-08-12d2t12.flac:f94a7d69f174e7124a57bfc502654f47
flac-md5
c85cacec7be26811e68c5b47d868b498 *gd1987-08-12d1t01.flac
67edbb1a8da555a2bd8b4883f98cb63e *gd1987-08-12d1t02.flac
8b0bf4c3206a26a18b31f57ec22fdaff *gd1987-08-12d1t03.flac
d2a9aabcb93caff663801a972d37585a *gd1987-08-12d1t04.flac
a05c71b44a93b603b8c40be18158a5c3 *gd1987-08-12d1t05.flac
45c34a16ba8ac3e5e699d524180ea0d2 *gd1987-08-12d1t06.flac
4fa3de1f38da1ecfe3ea2de4323a744d *gd1987-08-12d1t07.flac
cd64acb539ec1b9ad3907529fbe78f98 *gd1987-08-12d1t08.flac
7b1a02991ffd143e14169ca072ae2948 *gd1987-08-12d1t09.flac
be084b481fd3681d17c96c6b39bbc9d7 *gd1987-08-12d1t10.flac
576bfe88df1b7c4fb7eed914e5419fab *gd1987-08-12d2t01.flac
3671166591a24eab3f37ae2c4e5cf15d *gd1987-08-12d2t02.flac
4c72378979eeaf03262eacd83f4dd4c0 *gd1987-08-12d2t03.flac
770364d07961504ce2df89157cd6b237 *gd1987-08-12d2t04.flac
61ff0a78dc1b935488118d99a6087ff4 *gd1987-08-12d2t05.flac
b60213f6851dc219c0bdb706ab70e71b *gd1987-08-12d2t06.flac
a30bfb57ced825bb544b72540ddc8743 *gd1987-08-12d2t07.flac
a750cc7266c18f68cef7d1b4f3cbd0ab *gd1987-08-12d2t08.flac
85732d33348c37917ceff3a71920dae3 *gd1987-08-12d2t09.flac
3844f2355f826c35f2b6f9c5ba20c3e7 *gd1987-08-12d2t10.flac
9bb6f0a4423bd8cb5b8f54299ebe1ffd *gd1987-08-12d2t11.flac
ec0c88328f13a2bd8c0e64de7c4fa147 *gd1987-08-12d2t12.flac

Comments
Add Comment
Other Sources (comments)
Nak CM 100>MC>DAT>CD; via... (2) AUD (Nak... (2) flac16; Recording... (0) AUD Source: Nakamichi... (0) flac16; Source:... (0) flac16; Recording... (0) flac16; Source Info:... (0)
Date User Comment