Browse Collections Artists Sources   Search Dates

Add Show    List Management    Help


Grateful Dead 02/10/89
Great Western LA Forum, Inglewood, CA
Comments Add Comment    Source Collectors    Add to Collection    Add to Want List    History
Source # 77647 Other Sources
Entered by Matt Vernon
Checksums ffp , flac-md5
Disc Counts 2 / 2
Media Size
Date Circulated
Date Added
09/2006
09/19/2006
Source Summary flac16; Senn MKE2002 omni's HRTF -> Sony TC-D5M @ 6' 5" FOB/DFC to 24/96 digital: Sony TC-D5M master deck and master, no n.r. -> Tascam DVRA1000 DSD recorder in high res PCM mode of 24bit/96khz to flac: DVRA1000 Project Disc 24/96 files imported via Mac Tiger 10.4.Flac compression by xACT to 7/8 compression conversion: by Bob Loy Samplitude Professional V8.01 > Declipping > -13db > Isotope Ozone loudness maximizer > new max peak -.1db > 16bit 44100hz >ffe l6 sbes aligned by set>1d3 tag 
  Archive
Source Information - Download Text | Download Zip
Grateful Dead
February 10, 1989 Friday

The Fabulous Forum Minglewood, CA

Ambient Master by Mike French
A Tapers From Hell Gathering: A Journey to the Impact Zone

both sets:
Senn MKE2002 omni's HRTF -> Sony TC-D5M @ 6' 5" FOB/DFC

to 24/96 digital:
Sony TC-D5M master deck and master, no n.r. -> Tascam DVRA1000 DSD recorder in high res PCM mode of 24bit/96khz

to flac:
DVRA1000 Project Disc 24/96 files imported via Mac Tiger 10.4.Flac compression by xACT to 7/8 compression

conversion: by Bob Loy
Samplitude Professional V8.01 > Declipping > -13db > Isotope Ozone loudness maximizer > new max peak -.1db
> 16bit 44100hz >ffe l6 sbes aligned by set > id3 tag


d1t01 Feel Like A Stranger ->
d1t02 Franklin's Tower ->
d1t03 Walking Blues
d1t04 To Lay Me Down
d1t05 When I Paint My Masterpiece
d1t06 Friend of the Devil
d1t07 Let It Grow

set 2
d1t08 Just A Little Light*
d1t09 Truckin ->

set2 cont
d2t01 Crazy Fingers ->
d2t02 Playin' in the Band ->
d2t03 Drumz ->
d2t04 Space ->
d2t05 The Wheel ->
d2t06 Gimme Some Lovin' ->
d2to7 Wharf Rat ->
d2t08 Sugar Magnolia -> Sunshine Daydream
d2t09 E: It's All Over Now, Baby Blue

*without Weir

An incredibly loud show!!
This master is by Mike French and Brian C. (of Long Island, NY), and Tapers From Hell.
Mike wore the mics hrtf, and Brian ran the decks. This was Brian's first live recording effort.
We had some brickwalling from the loudness of the music, and it wasn't recognized until after the concert


    length     expanded size   cdr  WAVE problems filename
     7:34.10       80109164    ---   --   ---xx   gd89-02-10d1t01.flac
     9:35.54      101557052    ---   --   ---xx   gd89-02-10d1t02.flac
     7:17.14       77119772    ---   --   ---xx   gd89-02-10d1t03.flac
     8:57.55       94856204    ---   --   ---xx   gd89-02-10d1t04.flac
     5:16.61       55885916    ---   --   ---xx   gd89-02-10d1t05.flac
     8:14.64       87292172    ---   --   ---xx   gd89-02-10d1t06.flac
    12:05.04      127899452    ---   --   ---xx   gd89-02-10d1t07.flac
     9:20.59       98922812    ---   --   ---xx   gd89-02-10d1t08.flac
     8:04.07       85394108    ---   --   ---xx   gd89-02-10d1t09.flac
    76:26.28      809036652 B                     (totals for 9 files, 0.6032 overall compression ratio)

    length     expanded size   cdr  WAVE problems filename
     8:27.34       89514812    ---   --   ---xx   gd89-02-10d2t01.flac
    14:37.71      154869836    ---   --   ---xx   gd89-02-10d2t02.flac
     6:05.08       64404860    ---   --   ---xx   gd89-02-10d2t03.flac
     9:23.44       99416732    ---   --   ---xx   gd89-02-10d2t04.flac
     5:29.49       58150892    ---   --   ---xx   gd89-02-10d2t05.flac
     4:59.11       52769516    ---   --   ---xx   gd89-02-10d2t06.flac
    10:20.29      109436252    ---   --   ---xx   gd89-02-10d2t07.flac
     8:46.69       92948732    ---   --   ---xx   gd89-02-10d2t08.flac
     8:56.73       94722140    ---   --   ---xx   gd89-02-10d2t09.flac
    77:07.13      816233772 B                     (totals for 9 files, 0.5859 overall compression ratio)
Show Checksums
ffp
gd89-02-10d1t01.flac:70633a5ad06f8cef9bde61ed819a36b5
gd89-02-10d1t02.flac:abe1d69f5a2d8c3f2a7ec7675b5d9d38
gd89-02-10d1t03.flac:6945f4b43915824a073a4897abaa50a5
gd89-02-10d1t04.flac:c56418a2ac1a8d13b7bc5166d7379435
gd89-02-10d1t05.flac:ea23102911b609811be2776a754362fa
gd89-02-10d1t06.flac:491336f11085645961793645dbf4d40e
gd89-02-10d1t07.flac:cdb17c6a28e8bc5690b137dcb184ef23
gd89-02-10d1t08.flac:99c2d49e2b3d246d2fd421b52b2128ac
gd89-02-10d1t09.flac:286369d8d31579c0a84179a7ea05b75e
gd89-02-10d2t01.flac:92d79f5f404f1d862ce99a705cba5039
gd89-02-10d2t02.flac:6af122e992f73b223c93649103377318
gd89-02-10d2t03.flac:478e61c6a256536e4ab3592c2210792f
gd89-02-10d2t04.flac:57275f33d88883708663b2de9964ffb0
gd89-02-10d2t05.flac:788ab1ec8520669e5e62aa6ed567864a
gd89-02-10d2t06.flac:9301ad6bef9965a61ad74f84ef11131a
gd89-02-10d2t07.flac:894162202d59a910ed6d30dfb1a67fe0
gd89-02-10d2t08.flac:c1850486fa489c71849bb9b2bc207e4a
gd89-02-10d2t09.flac:8ed87bfbab3e9d27d6bb3439ec1c9946
flac-md5
0f41df55fa2bb0049b6b04caf026713d *gd89-02-10d1t01.flac
3f0697fa3b505647ec882a16bf12ca7a *gd89-02-10d1t02.flac
6ca828db5a07e1c96b0353d8eb375bb5 *gd89-02-10d1t03.flac
8c1e1bfb65feb1234d36674c17252f2a *gd89-02-10d1t04.flac
74b32bdd58ba06d03867400bb445d427 *gd89-02-10d1t05.flac
a61227c8f1f99e0dcbeff361a07f8b42 *gd89-02-10d1t06.flac
0d76d34816e183f8a4107da0d8071b94 *gd89-02-10d1t07.flac
f964fabb908ec713111011f23a9da633 *gd89-02-10d1t08.flac
1cbf2f950015302e229e8214a0fa8a69 *gd89-02-10d1t09.flac
5c22bdad7e36553f5353169616c45719 *gd89-02-10d2t01.flac
b9db50eb2497af2ff818733f55de3b20 *gd89-02-10d2t02.flac
b3542a6f7d0604ad6b0c8ef91fedf110 *gd89-02-10d2t03.flac
c6db83a292baf9e41526b04f2a66083a *gd89-02-10d2t04.flac
98ba12ebdde3b6ff0ab5f36d2c6222a8 *gd89-02-10d2t05.flac
843f9e0839207905618b40bd8cc20c39 *gd89-02-10d2t06.flac
257c5878c4ae6e9d32ad60b94a75d4d1 *gd89-02-10d2t07.flac
676500cf9dc3be5693fb80932e0d1e0d *gd89-02-10d2t08.flac
0c46d2341b769d50cba467abf0923587 *gd89-02-10d2t09.flac

Comments
Add Comment
Other Sources (comments)
Source: Master Cassette... (0) flac16; Seamless fix... (1) flac24/96; Senn... (1) flac24/48; Senn... (0) flac16; AT835B's- AT... (0) flac24; Recording... (0) flac16; Recording... (1) flac16; Source Info:... (0) flac16; Recording... (0)
Date User Comment