Browse Collections Artists Sources   Search Dates

Add Show    List Management    Help


Grateful Dead 02/10/89
Great Western LA Forum, Inglewood, CA
Comments Add Comment    Source Collectors    Add to Collection    Add to Want List    History
Source # 77708 Other Sources
Entered by Matt Vernon
Checksums flac-md5 , ffp
Disc Counts 3 / 1
Media Size
Date Circulated
Date Added
09/20/2009
09/19/2006
Source Summary flac24/48; Senn MKE2002 omni's HRTF -> Sony TC-D5M @ 6' 5" FOB/DFC to 24/96 digital: Sony TC-D5M master deck and master, no n.r. -> Tascam DVRA1000 DSD recorder in high res PCM mode of 24bit/96khz to flac: DVRA1000 Project Disc 24/96 files imported via Mac Tiger 10.4.Flac compression by xACT to 7/8 compression conversion 24/48: by Bob Loy Samplitude Professional V8.01 > Declipping > -13db > Isotope Ozone loudness maximizer > new max peak -.1db > 24bit 48hz >ffe l6; this is a clean-up of the original 24 bit source 
  Archive
Source Information - Download Text | Download Zip
Grateful Dead
February 10, 1989 friday

The Fabulous Forum Minglewood, CA

Ambient Master by Mike French
A Tapers From Hell Gathering: A Journey to the Impact Zone

both sets:
Senn MKE2002 omni's HRTF -> Sony TC-D5M @ 6' 5" FOB/DFC

to 24/96 digital:
Sony TC-D5M master deck and master, no n.r. -> Tascam DVRA1000 DSD recorder in high res PCM mode of 24bit/96khz

to flac:
DVRA1000 Project Disc 24/96 files imported via Mac Tiger 10.4.Flac compression by xACT to 7/8 compression

conversion 24/48: by Bob Loy
Samplitude Professional V8.01 > Declipping > -13db > Isotope Ozone loudness maximizer > new max peak -.1db > 24bit 48hz >ffe l6


set1t01 Stranger ->
set1t02 Franklin's Tower ->
set1t03 Walking Blues
set1t04 To Lay Me Down
set1t05 When I Paint My Masterpiece
set1t06 Friend of the Devil
set1t07 Let It Grow

set2t01 Little Light*
set2t02 Truckin ->
set2t03 Crazy Fingers ->
set2t04 Playin in the Band ->
set2t05 Drumz ->
set2t06 Space ->
set2t07 The Wheel ->
set2t08 Gimme Some Lovin ->
set2to9 Wharf Rat ->
set2t10 Sugar Magnolia -> Sunshine Daydream
set2t11 E: It's All Over Now Baby Blue

*without Weir

An incredibly loud show!!
This master is by Mike French and Brian C. (of Long Island, NY), and Tapers From Hell.
Mike wore the mics hrtf, and Brian ran the decks. This was Brian's first live recording effort.
We had some brickwalling from the loudness of the music, and it wasn't recognized until after the concert

    length     expanded size   cdr  WAVE problems filename
     7:34.143     130793234    cxx   --   ---xx   gd89-02-10t01.flac
     9:35.722     165807890    cxx   --   ---xx   gd89-02-10t02.flac
     7:17.183     125908754    cxx   --   ---xx   gd89-02-10t03.flac
     8:57.727     154865426    cxx   --   ---xx   gd89-02-10t04.flac
     5:16.820      91244306    cxx   --   ---xx   gd89-02-10t05.flac
     8:14.847     142515986    cxx   --   ---xx   gd89-02-10t06.flac
    12:05.034     208809746    cxx   --   ---xx   gd89-02-10t07.flac
     9:20.788     161507090    cxx   --   ---xx   gd89-02-10t08.flac
     8:04.095     139419410    cxx   --   ---xx   gd89-02-10t09.flac
     8:27.455     146147090    cxx   --   ---xx   gd89-02-10t10.flac
    14:37.951     252849938    cxx   --   ---xx   gd89-02-10t11.flac
     6:05.098     105148178    cxx   --   ---xx   gd89-02-10t12.flac
     9:23.583     162311954    cxx   --   ---xx   gd89-02-10t13.flac
     5:29.663      94942994    cxx   --   ---xx   gd89-02-10t14.flac
     4:59.135      86150930    cxx   --   ---xx   gd89-02-10t15.flac
    10:20.394     178673426    cxx   --   ---xx   gd89-02-10t16.flac
     8:46.911     151750418    cxx   --   ---xx   gd89-02-10t17.flac
     8:56.959     154644242    cxx   --   ---xx   gd89-02-10t18.flac
   153:33.508    2653491012 B                     (totals for 18 files, 0.7666 overall compression ratio)
Show Checksums
flac-md5
c76e709db397e77df12c1afa93331918 *gd89-02-10set1t01.flac
91124bea7751a3367968dd8f4feb0718 *gd89-02-10set1t02.flac
035299ca2b54e6af9c4ed20f08a5a8f2 *gd89-02-10set1t03.flac
36d3dbba0f8092c3f08f309ee6cdb071 *gd89-02-10set1t04.flac
4db5a6ef171c41a8822c888b963bdf8c *gd89-02-10set1t05.flac
53ce88c3dc20bfbf059a906e46047b07 *gd89-02-10set1t06.flac
a4417f16850d2444de24751a539384b9 *gd89-02-10set1t07.flac
3bc77fdb57c5ce6afb4946b50c0b54bb *gd89-02-10set2t01.flac
6ac4154f84cc95ce57f2e2f9cacebce7 *gd89-02-10set2t02.flac
443ee45b33ec0a653655c39c6d82d7f4 *gd89-02-10set2t03.flac
a54443cc6c1e12b5af3a90cfb803f0f9 *gd89-02-10set2t04.flac
65a904c4c8141d1c5ebc9df98fecbfb7 *gd89-02-10set2t05.flac
5c288fd9249f1668152bad070615df9f *gd89-02-10set2t06.flac
c32321e1642809ca0517c9d63807aa58 *gd89-02-10set2t07.flac
7118be0a194d1cb9d43d73ef03987bce *gd89-02-10set2t08.flac
61b8b204ab175fe58b6a09205eadbd17 *gd89-02-10set2t09.flac
ce8be49e2e81150527fe3775df519520 *gd89-02-10set2t10.flac
ba38edf58b59aedd147a96808a85e7b0 *gd89-02-10set2t11.flac
ffp
gd89-02-10set1t01.flac:7103c17ec211b43dcd3f8496307d23dc
gd89-02-10set1t02.flac:65d38f83df84d26bfda3aa48a97334d9
gd89-02-10set1t03.flac:ac012aed59cf55c724fb120eb61cdc9a
gd89-02-10set1t04.flac:b6b6a6e9346d70b5da9b2433b5306ffa
gd89-02-10set1t05.flac:0d3c6a8708a38afb43657e7115d292cc
gd89-02-10set1t06.flac:2a21d85e45c05b69cc4de57b61ce79c7
gd89-02-10set1t07.flac:cf788148fd3b4e6e158b2a0401d4b0f9
gd89-02-10set2t01.flac:c05007b8df577a5760409650002492b9
gd89-02-10set2t02.flac:97a00eadb69a801681a56a1349f2d667
gd89-02-10set2t03.flac:30e5ce87bbeafa97af1e2ae29989584c
gd89-02-10set2t04.flac:7a997af185491205309b16715fcbd337
gd89-02-10set2t05.flac:0ec236d3011d56164d44f305045f0b45
gd89-02-10set2t06.flac:9bc48c73af026934138fcf07ff171550
gd89-02-10set2t07.flac:1e4698e75a51b1acfdafa6a1001aaec5
gd89-02-10set2t08.flac:def5880d3fd799b47ab768d2be9309cb
gd89-02-10set2t09.flac:345016fe20ec86ed23e3588e478fc903
gd89-02-10set2t10.flac:57ec54edfe2fe362964bc0677c31c5e5
gd89-02-10set2t11.flac:f1d9063dd6277b3bed2d5afa67a75c8d

Comments
Add Comment
Other Sources (comments)
Source: Master Cassette... (0) flac16; Seamless fix... (1) flac24/96; Senn... (1) flac16; Senn MKE2002... (0) flac16; AT835B's- AT... (0) flac24; Recording... (0) flac16; Recording... (1) flac16; Source Info:... (0) flac16; Recording... (0)
Date User Comment