Browse Collections Artists Sources   Search Dates

Add Show    List Management    Help


Grateful Dead 03/23/87
Hampton Coliseum, Hampton, VA
Comments Add Comment    Source Collectors    Add to Collection    Add to Want List    History
Source # 77786 Other Sources
Entered by Matt Vernon
Checksums ffp , flac-md5
Disc Counts 2 / 2
Media Size
Date Circulated
Date Added
09/17/2006
09/20/2006
Source Summary flac16; Source: Sennheiser ME88 shotguns > Sony D6 > TDKMA90s. Recorded by B.Koucky. Transfer: MAC playback on Nakamichi DR-2 > Presonus Firebox/Neutrik Input > firewire > XP Pro PC/Wavelab 5 (recorded as 24bit/96 KHz WAV) > Waves L3 (rendered to 16/44.1 WAV using hi-res dither settings) > CDWAV 1.9 > FLAC (level 8 encoding). Transfer and FLAC encoding by C.Ladner 
  Archive
Source Information - Download Text | Download Zip
Grateful Dead
03/23/1987
Hampton Coliseum
Hampton, VA

Source:  Sennheiser ME88 shotguns > Sony D6 > TDKMA90s.  Recorded by B.Koucky.
Transfer:  MAC playback on Nakamichi DR-2 > Presonus Firebox/Neutrik Input > firewire > XP Pro PC/Wavelab 5 (recorded as 24bit/96 KHz WAV) > Waves L3 (rendered to 16/44.1 WAV using hi-res dither settings) > CDWAV 1.9 > FLAC (level 8 encoding).  Transfer and FLAC encoding by C.Ladner.
Seeded 9/2006 at planetflac and candyman FTP by the green mtn bros.

Disc I - Set I
01  Crowd/Tuning
02  Touch Of Grey >
03  Little Red Rooster
04  Althea
05  Me And My Uncle >
06  Big River
07  Iko Iko
08  Tons Of Steel
09  Feel Like A Stranger
10  Don't Ease Me In
Set II
11  Crowd/Tuning
12  Box Of Rain
13  Man Smart (Woman Smarter)
14  Ship Of Fools

Disc II - Set II (cont'd)
01  Truckin' >
02  Drums >
03  Space >
04  Spanish Jam >
05  The Other One >
06  Stella Blue >
07  Throwing Stones >
08  Turn On Your Lovelight
Encore
09  U.S. Blues

SHNTOOL LEN OUTPUT:
    length     expanded size   cdr  WAVE problems filename
     0:13.32        2368508    ---   --   ---xx   gd1987-03-23d1t01.flac
     6:02.01       63859196    ---   --   ---xx   gd1987-03-23d1t02.flac
     7:37.55       80744204    ---   --   ---xx   gd1987-03-23d1t03.flac
     8:17.71       87837836    ---   --   ---xx   gd1987-03-23d1t04.flac
     3:02.34       32184812    ---   --   ---xx   gd1987-03-23d1t05.flac
     5:34.55       59047004    ---   --   ---xx   gd1987-03-23d1t06.flac
     6:18.61       66822716    ---   --   ---xx   gd1987-03-23d1t07.flac
     6:31.50       69090044    ---   --   ---xx   gd1987-03-23d1t08.flac
     6:25.42       68012828    ---   --   ---xx   gd1987-03-23d1t09.flac
     3:26.11       36364316    ---   --   ---xx   gd1987-03-23d1t10.flac
     0:12.18        2159180    ---   --   ---xx   gd1987-03-23d1t11.flac
     4:56.37       52301468    ---   --   ---xx   gd1987-03-23d1t12.flac
     7:29.47       79314188    ---   --   ---xx   gd1987-03-23d1t13.flac
     8:24.40       88999724    ---   --   ---xx   gd1987-03-23d1t14.flac
    10:14.39      108401372    ---   --   ---xx   gd1987-03-23d2t01.flac
    10:18.74      109189292    ---   --   ---xx   gd1987-03-23d2t02.flac
     5:15.28       55631900    ---   --   ---xx   gd1987-03-23d2t03.flac
     3:09.01       33341996    ---   --   ---xx   gd1987-03-23d2t04.flac
     5:05.40       53896124    ---   --   ---xx   gd1987-03-23d2t05.flac
     8:32.23       90370940    ---   --   ---xx   gd1987-03-23d2t06.flac
     7:57.54       84269852    ---   --   ---xx   gd1987-03-23d2t07.flac
     5:08.18       54373580    ---   --   ---xx   gd1987-03-23d2t08.flac
     5:20.09       56469212    ---   --   ---xx   gd1987-03-23d2t09.flac
   135:35.15     1435050292 B                     (totals for 23 files, 0.6645 overall compression ratio)
Show Checksums
ffp
gd1987-03-23d1t01.flac:98792c3e2e004551cd9a32f99188a49b
gd1987-03-23d1t02.flac:0c7aabbd8e6da8f9f991c59e647dcb47
gd1987-03-23d1t03.flac:7dd9585323a0b70d4c3db1f3c73412b7
gd1987-03-23d1t04.flac:d498c2e70a7c925b0d97a4e596d29015
gd1987-03-23d1t05.flac:6ec65b6e6e957085cc42ae90da989595
gd1987-03-23d1t06.flac:e257cd9b364910e8681dd3fddce82090
gd1987-03-23d1t07.flac:708e3022039c064ae5742b1c3d1a94b3
gd1987-03-23d1t08.flac:9294c329e41cb00d7fa77ed344ca20df
gd1987-03-23d1t09.flac:4f836c9f9810209d1c43be2d96c9ec54
gd1987-03-23d1t10.flac:b8fdfc45fb26ced5d40c0390e4ff6026
gd1987-03-23d1t11.flac:52d8f174a7f5f5711d0aab2e5cbd7787
gd1987-03-23d1t12.flac:be07c744419eb5e6a924c9f2bc53467c
gd1987-03-23d1t13.flac:32b7ff0c78d42d23d1295ccdc65d9563
gd1987-03-23d1t14.flac:72f90b12b6290a3a4e014fb07f7362f1
gd1987-03-23d2t01.flac:f4c3aa628ec74a544c33b820ed18d198
gd1987-03-23d2t02.flac:ba8cdf4452afb7922b905ab56a218a97
gd1987-03-23d2t03.flac:b5c30ff6dc8697443a5c3541400c07d6
gd1987-03-23d2t04.flac:6c9b25719d977a48a73f2809396940a6
gd1987-03-23d2t05.flac:bb9795260c6a49e011a47a255ad90d40
gd1987-03-23d2t06.flac:61c0092bf08da9366b9b8bcbbb740a01
gd1987-03-23d2t07.flac:71641a0ad35377d1d30ae461dd62ff3c
gd1987-03-23d2t08.flac:a1ff6bfbd7fc4716af562d2719aae9ac
gd1987-03-23d2t09.flac:5773054d24775ac6d61b4fad3c06bb99
flac-md5
b6ebcac29edb16184064d26302f43b3e *gd1987-03-23d1t01.flac
03ffe3bf236378ac4eb66ba4d1674d24 *gd1987-03-23d1t02.flac
b2ffe96a77a6b5330a5dc67a8ee6ebaa *gd1987-03-23d1t03.flac
6b3ff3fb9d9a5e665275eef396c0f19f *gd1987-03-23d1t04.flac
a11d949e312a138a910e604ff187cd26 *gd1987-03-23d1t05.flac
7e81a7163790af17be563ef9a604694b *gd1987-03-23d1t06.flac
b6c9f077431ac6104d2fb973611eef3c *gd1987-03-23d1t07.flac
ef6accf6710cb48c170d87dce77dcdbc *gd1987-03-23d1t08.flac
9201950ab078a7b8a77713f1136b4fbf *gd1987-03-23d1t09.flac
fcca6ddb5a1d0be00698afe6829fe1c8 *gd1987-03-23d1t10.flac
2ffdde657b73b52f4b5208efe5ed3487 *gd1987-03-23d1t11.flac
d89f6ed4ab86af965db4dd0c55eb2dc5 *gd1987-03-23d1t12.flac
c7e8be011c6eb67e93b43d2e53244f61 *gd1987-03-23d1t13.flac
87a465416ee47bba68e5b080e8eadca0 *gd1987-03-23d1t14.flac
25c5c4467eb513645046a2cefaf73819 *gd1987-03-23d2t01.flac
a4ca1e0e4c9c6e8b2f8c72440dfb3811 *gd1987-03-23d2t02.flac
0fe062b307651d560c70034a942ce2e9 *gd1987-03-23d2t03.flac
c42d1d02c69898c0f8b667c4894ffd93 *gd1987-03-23d2t04.flac
b1b256ff74014ea6c337cf2a58f59960 *gd1987-03-23d2t05.flac
d66d80731a88e0e9d5acfe85c5021c6c *gd1987-03-23d2t06.flac
028129cf6ba5b076163abb337d2cd3ec *gd1987-03-23d2t07.flac
9dc85a2372499120c160beebaaf452bb *gd1987-03-23d2t08.flac
dc267671ed53750107eaaf5943b630af *gd1987-03-23d2t09.flac

Comments
Add Comment
Other Sources (comments)
FOB Schoeps CMC44 > Oade... (1) flac16; taper : Joe... (0) flac16; Nakamichi... (0) flac16; Recording... (0) flac16; 2 AKG 451s... (0) flac16; Master... (0) flac24; Master... (0) flac24; Updated... (0) flac24; Recording... (0) flac16; Recording... (2) flac24; Patched &... (0) flac16; Patched... (0) flac24; Matrix 2... (0) flac16; Matrix 2... (0) DTS-Audio-CD 5.1... (0) flac16/48kHz; 5.1... (0)
Date User Comment