Browse Collections Artists Sources   Search Dates

Add Show    List Management    Help


Drive-By Truckers 09/15/06
Tennessee Theatre, Knoxville, TN
Comments Add Comment    Source Collectors    Add to Collection    Add to Want List    History
Source # 77804 Other Sources
Entered by Kyle pike
Checksums flac.ffp
Disc Counts 2 / 2
Media Size
Date Circulated
Date Added
09/16/06
09/20/2006
Source Summary Neumann KM184 > Lunatec V3 > JB3 (Gordon Wilson)  
Source Information - Download Text | Download Zip
Drive-By Truckers
09/15/06
Tennessee Theatre
Knoxville, TN

source:   Neumann km-184 (din @ 6\') > Lunatec V3 > Nomad Jukebox 3
location: orchestra center row G (10th row FOB) seat 109 DFC
transfer: JB3 > firewire > nomad explorer > sound forge 8.0 > cd wave > flac (level 6)

taped and transferred by Gordon Wilson

disc one:

1. Lookout Mountain
2. Uncle Frank
3. Decoration Day
4. Puttin' People On The Moon
5. Space City *
6. Sink Hole
7. Daylight
8. A Blessing and A Curse
9. When The Pin Hits The Shell
10. Do It Yourself
11. Goddamn Lonely Love
12. Feb. 14
13. Gravity's Gone
14. Tales Facing Up

disc two:

1. Let Me Roll It
2. Zoloft
3. Marry Me
4. Ronnie and Neil
5. The Day John Henry Died
6. The Southern Thing Intro
7. The Southern Thing

Encore:

8. Banter/Happy Birthday #
9. Too Much Sex (Too Little Jesus) ^
10. Panties In Your Purse ^
11. Dress Blues
12. The Living Bubba
13. Buttholeville %

* Cooley on acoustic
^ Cooley, Jason, & Patterson on acoustic
% Neff on Patterson's Les Paul and SG
# for Mark, the guitar tech
fades added at the beginning and end of set with sound forge 8.0
sector boundaries verified with shntool v2.0.3

shntool output:
    length     expanded size   cdr  WAVE problems filename
     5:14.18       55431980    ---   --   ---xx   dbt2006-09-15d1t01.flac
     5:20.29       56516252    ---   --   ---xx   dbt2006-09-15d1t02.flac
     6:11.18       65486780    ---   --   ---xx   dbt2006-09-15d1t03.flac
     6:01.39       63772172    ---   --   ---xx   dbt2006-09-15d1t04.flac
     6:14.66       66128876    ---   --   ---xx   dbt2006-09-15d1t05.flac
     3:54.00       41277644    ---   --   ---xx   dbt2006-09-15d1t06.flac
     3:36.62       38248268    ---   --   ---xx   dbt2006-09-15d1t07.flac
     5:18.10       56118764    ---   --   ---xx   dbt2006-09-15d1t08.flac
     4:21.38       46129820    ---   --   ---xx   dbt2006-09-15d1t09.flac
     4:35.34       48590012    ---   --   ---xx   dbt2006-09-15d1t10.flac
     6:01.66       63835676    ---   --   ---xx   dbt2006-09-15d1t11.flac
     3:59.16       42197276    ---   --   ---xx   dbt2006-09-15d1t12.flac
     3:35.37       38013068    ---   --   ---xx   dbt2006-09-15d1t13.flac
     5:11.45       54966284    ---   --   ---xx   dbt2006-09-15d1t14.flac
     6:07.64       64889372    ---   --   ---xx   dbt2006-09-15d2t01.flac
     4:38.01       49041596    ---   --   ---xx   dbt2006-09-15d2t02.flac
     5:54.51       62565596    ---   --   ---xx   dbt2006-09-15d2t03.flac
     5:07.17       54194828    ---   --   ---xx   dbt2006-09-15d2t04.flac
     4:14.65       44958524    ---   --   ---xx   dbt2006-09-15d2t05.flac
     4:53.60       51826364    ---   --   ---xx   dbt2006-09-15d2t06.flac
     7:21.74       77966492    ---   --   ---xx   dbt2006-09-15d2t07.flac
     2:11.09       23129612    ---   --   ---xx   dbt2006-09-15d2t08.flac
     3:56.43       41731580    ---   --   ---xx   dbt2006-09-15d2t09.flac
     4:20.25       45922844    ---   --   ---xx   dbt2006-09-15d2t10.flac
     4:33.72       48326588    ---   --   ---xx   dbt2006-09-15d2t11.flac
     6:29.21       68669036    ---   --   ---xx   dbt2006-09-15d2t12.flac
     7:49.45       82837484    ---   --   ---xx   dbt2006-09-15d2t13.flac
   137:15.50        1385.47 MB                    (totals for 27 files, 0.5480 overall compression ratio)
Show Checksums
flac.ffp
dbt2006-09-15d1t01.flac:0803cfb7e58e3a4cb8522785d0dde6a8
dbt2006-09-15d1t02.flac:91afe3a56a099501665554b1562ad321
dbt2006-09-15d1t03.flac:c6e52789ea8ead2871e4d196f38ebf69
dbt2006-09-15d1t04.flac:374f29867d25d0c8b85a893b58700a3f
dbt2006-09-15d1t05.flac:8cd27e9a787d80b6e30dd1da4697b3ee
dbt2006-09-15d1t06.flac:37778e6fadcbe7559f1bb4f1ce1a3592
dbt2006-09-15d1t07.flac:5c7c7e426d360ca92b6d0cb47e4f878a
dbt2006-09-15d1t08.flac:9a660fd52de0c373d4299f12b9d38b63
dbt2006-09-15d1t09.flac:4ef983e23b9d9f84ccb3de123710e954
dbt2006-09-15d1t10.flac:21be49965c46bd0da23243983f06a09a
dbt2006-09-15d1t11.flac:8cd362ae1515133bcebe640cd9c22111
dbt2006-09-15d1t12.flac:b95184853437852c8d55e831fc2291b3
dbt2006-09-15d1t13.flac:2a54247862ebdbc49b08e8704f673bdc
dbt2006-09-15d1t14.flac:fe876d4040ad3ba3fa3910676ffc4ff3
dbt2006-09-15d2t01.flac:fa39f870e9ed2243b77e9071ad9c0b3d
dbt2006-09-15d2t02.flac:edaaaefddd73bd742ec79d13ba8e83ee
dbt2006-09-15d2t03.flac:0c156907027486b776b49642c566e3ec
dbt2006-09-15d2t04.flac:1d3456d41ae5b22978308fab0da69916
dbt2006-09-15d2t05.flac:ae5bce60c9908fefeedd40c140af272a
dbt2006-09-15d2t06.flac:116b6a5f31804da43a2ba5e69d15ba3a
dbt2006-09-15d2t07.flac:2245785ab2d729503bdc5e7910c05932
dbt2006-09-15d2t08.flac:eaf7be087797dccd6081797308a498aa
dbt2006-09-15d2t09.flac:2926e2c9e3e50d46a0c8fb63295b542b
dbt2006-09-15d2t10.flac:075d31c41bf0e8b160efe37fe17cf727
dbt2006-09-15d2t11.flac:48a75dd212b2cf9dea7c73a53cb30e6d
dbt2006-09-15d2t12.flac:3f1c2c47cc74840ac553d78c088f0658
dbt2006-09-15d2t13.flac:7dac71bb730822af9d14d1774105d976

Comments
Add Comment
Date User Comment