Browse Collections Artists Sources   Search Dates

Add Show    List Management    Help


Grateful Dead 03/29/87
The Spectrum, Philadelphia, PA
Comments Add Comment    Source Collectors    Add to Collection    Add to Want List    History
Source # 77977 Other Sources
Entered by Matt Vernon
Checksums ffp , flac-md5
Disc Counts 2 / 3
Media Size
Date Circulated
Date Added
09/22/2006
09/24/2006
Source Summary flac16; Source: AUD, Nakamichi CM-300's with CP-4 shotgun capsules > Sony TC-D5M > Maxell MX-90 cassettes, with no Dolby. Set up next to the soundboard, on the left side (stage right). Mics on stand aprx 7-1/2 feet high, pointed at the stacks. Transfer: MAC > Sony TC-D5M (no Dolby) > Marantz CDR-500 > EAC > Soundforge > CD-Wave > TLH v.1.0.0.72 (for SBE-OK, FLAC compression, and checksums) > FLAC Taped and transfered by Andrew F 
  Archive
Source Information - Download Text | Download Zip
GRATEFUL DEAD
The Spectrum
Philadelphia PA
03-29-1987

Disc One (61:07)

01 crowd & tuning
02 Hell in a Bucket >
03 Bertha >
04 Little Red Rooster
05 Far From Me
06 Friend of the Devil >
07 El Paso >
08 When Push Comes to Shove
09 Let it Grow
-- set break --

Disc Two (40:22)

01 crowd & tuning
02 Mississippi Half Step >
03 Playin' in the Band >
04 China Doll >
05 Women Are Smarter >
06 Drums >

Disc Three (45:34)

01 Space >
02 The Wheel >
03 Goin' Down the Road >
04 Playin' Reprise >
05 Black Muddy River >
06 Sugar Magnolia
-- encore --
07 crowd & tuning
08 The Mighty Quinn

Source: AUD, Nakamichi CM-300's with CP-4 shotgun capsules >
Sony TC-D5M > Maxell MX-90 cassettes, with no Dolby. Set up
next to the soundboard, on the left side (stage right). Mics
on stand aprx 7-1/2 feet high, pointed at the stacks.

Transfer: MAC > Sony TC-D5M (no Dolby) > Marantz CDR-500 >
EAC > Soundforge > CD-Wave > TLH v.1.0.0.72 (for SBE-OK,
FLAC compression, and checksums) > FLAC, September 2006.

Notes: Patches from Shnid-7344 were used to cover the tape
flips; at the end of El Paso (5:21 > 5:30), and in Space
(5:20 > 5:25). The break between D2 and D3 is seamless.
Soundforge was used for the patches and to make fades.
Taped and transfered by Andrew F.        ***ENJOY***


MD-5

8cc293917bf6abfcd295866b7f1d65bd *gd1987-03-29d1t01.flac
5c6ac2577e8f3ba5d72de1955851d5d0 *gd1987-03-29d1t02.flac
f8afaf20ac8823d559eb0e0b79e66d07 *gd1987-03-29d1t03.flac
384866eb0eaaa24b9720d96a616b45a5 *gd1987-03-29d1t04.flac
958f8c4fbdc513dffa8b963e900dac2a *gd1987-03-29d1t05.flac
68f37694d9895cd8562b8896800e8244 *gd1987-03-29d1t06.flac
0ef0c6f43e9f98834d9e87164818524c *gd1987-03-29d1t07.flac
dbfe5cd1eec474d68e9c739a2e557272 *gd1987-03-29d1t08.flac
0cb6144ce9bc7167c28d5b051f8fa39c *gd1987-03-29d1t09.flac
857507d16499411fcdb6b21a2b051b7c *gd1987-03-29d2t01.flac
747b1b2e34b6df74e26f8acba8189785 *gd1987-03-29d2t02.flac
b788b2e365d3ed2ad7237f8a478ff76c *gd1987-03-29d2t03.flac
a3bf940066ccbff4b96d4c2d36fd396e *gd1987-03-29d2t04.flac
125439ef6c865b93eaeef4e7036def55 *gd1987-03-29d2t05.flac
dee0c64d99d355412e278c0ae1af3e81 *gd1987-03-29d2t06.flac
12484eb0826f103cddc0538bf4504a21 *gd1987-03-29d3t01.flac
6c49454fa6bfb669360c1f66fe8c88db *gd1987-03-29d3t02.flac
62a2ff942d908778fa470d3051c9c8f8 *gd1987-03-29d3t03.flac
427cde1343c23c4d0487e0c94775b9ae *gd1987-03-29d3t04.flac
3b05b6eb109968483523bb9d7d7e731e *gd1987-03-29d3t05.flac
9ea4429ab152331251db7b1f8e0c9a2c *gd1987-03-29d3t06.flac
fefad097948e1c0f15f94a918c09eea8 *gd1987-03-29d3t07.flac
8eca519840f17a0f3231134437b24924 *gd1987-03-29d3t08.flac

FFP

gd1987-03-29d1t01.flac:ea82d929727a3385527576a426dc8144
gd1987-03-29d1t02.flac:b6b467c1fb51949a79d70d2d733b8577
gd1987-03-29d1t03.flac:77f70fd5ca62aabcaa7f699d8dab1b0a
gd1987-03-29d1t04.flac:98cada2845686f8e28f230867d938fc6
gd1987-03-29d1t05.flac:731311a6c7442506507ce71d0587de32
gd1987-03-29d1t06.flac:119b955d34b331048e366b8ab25cc3ec
gd1987-03-29d1t07.flac:fca4e9d66706dfcab86807f1bd29b1d1
gd1987-03-29d1t08.flac:b9ae15f681a4e1c74cacaf689722905c
gd1987-03-29d1t09.flac:ee36967c1d299fa878ea9642f325d43a
gd1987-03-29d2t01.flac:30b4bd1b5bb7653f0d858ce42ceb682e
gd1987-03-29d2t02.flac:067b56f586a5ebd3f08b977c73389c12
gd1987-03-29d2t03.flac:11d2bb57835adcb57034d11f6e6b6f0e
gd1987-03-29d2t04.flac:a63d45c44c9ef3368ac579aa3eac744d
gd1987-03-29d2t05.flac:3f827bc9a14daa0744d5ba9d3d959323
gd1987-03-29d2t06.flac:15bbb1268b24c55b1dc9cef6b5e0eda6
gd1987-03-29d3t01.flac:de65c7624bd3add7b3f153b7f6df212e
gd1987-03-29d3t02.flac:f954f2f98074230be9ce5c68660b527a
gd1987-03-29d3t03.flac:503c85c9587f42a96e7cc5c020feabf3
gd1987-03-29d3t04.flac:715de4401f07f193bd41cddacb327b3e
gd1987-03-29d3t05.flac:5165e58bcfb673fd23a1b6e5d27e52a8
gd1987-03-29d3t06.flac:dcc5125b99f43150a6c194b0d9959204
gd1987-03-29d3t07.flac:75d331468f31b5111613559744d12232
gd1987-03-29d3t08.flac:7517526cbcd80d138762698b9804f007

SHNTOOL

    length     expanded size   cdr  WAVE problems filename
     0:47.13        8321420    ---   --   ---xx   gd1987-03-29d1t01.flac
     5:45.00       60858044    ---   --   ---xx   gd1987-03-29d1t02.flac
     7:20.30       77686604    ---   --   ---xx   gd1987-03-29d1t03.flac
     9:20.20       98831084    ---   --   ---xx   gd1987-03-29d1t04.flac
     4:53.19       51729932    ---   --   ---xx   gd1987-03-29d1t05.flac
     8:18.12       87875468    ---   --   ---xx   gd1987-03-29d1t06.flac
     5:41.15       60187724    ---   --   ---xx   gd1987-03-29d1t07.flac
     6:06.48       64675340    ---   --   ---xx   gd1987-03-29d1t08.flac
    12:55.50      136827644    ---   --   ---xx   gd1987-03-29d1t09.flac
     0:46.03        8121500    ---   --   ---xx   gd1987-03-29d2t01.flac
     7:56.11       83992316    ---   --   ---xx   gd1987-03-29d2t02.flac
    10:19.01      109193996    ---   --   ---xx   gd1987-03-29d2t03.flac
     6:56.29       73450652    ---   --   ---xx   gd1987-03-29d2t04.flac
     7:32.21       79782236    ---   --   ---xx   gd1987-03-29d2t05.flac
     6:52.28       72742700    ---   --   ---xx   gd1987-03-29d2t06.flac
     6:45.31       71514956    ---   --   ---xx   gd1987-03-29d3t01.flac
     8:44.04       92443052    ---   --   ---xx   gd1987-03-29d3t02.flac
     6:16.57       66460508    ---   --   ---xx   gd1987-03-29d3t03.flac
     3:28.46       36799436    ---   --   ---xx   gd1987-03-29d3t04.flac
     6:06.52       64684748    ---   --   ---xx   gd1987-03-29d3t05.flac
     9:11.59       97335212    ---   --   ---xx   gd1987-03-29d3t06.flac
     0:17.42        3097628    ---   --   ---xx   gd1987-03-29d3t07.flac
     4:43.48       50034140    ---   --   ---xx   gd1987-03-29d3t08.flac
   147:04.39     1556646340 B                     (totals for 23 files, 0.6059 overall compression ratio)

There were no sector boundary errors.
Show Checksums
ffp
gd1987-03-29d1t01.flac:ea82d929727a3385527576a426dc8144
gd1987-03-29d1t02.flac:b6b467c1fb51949a79d70d2d733b8577
gd1987-03-29d1t03.flac:77f70fd5ca62aabcaa7f699d8dab1b0a
gd1987-03-29d1t04.flac:98cada2845686f8e28f230867d938fc6
gd1987-03-29d1t05.flac:731311a6c7442506507ce71d0587de32
gd1987-03-29d1t06.flac:119b955d34b331048e366b8ab25cc3ec
gd1987-03-29d1t07.flac:fca4e9d66706dfcab86807f1bd29b1d1
gd1987-03-29d1t08.flac:b9ae15f681a4e1c74cacaf689722905c
gd1987-03-29d1t09.flac:ee36967c1d299fa878ea9642f325d43a
gd1987-03-29d2t01.flac:30b4bd1b5bb7653f0d858ce42ceb682e
gd1987-03-29d2t02.flac:067b56f586a5ebd3f08b977c73389c12
gd1987-03-29d2t03.flac:11d2bb57835adcb57034d11f6e6b6f0e
gd1987-03-29d2t04.flac:a63d45c44c9ef3368ac579aa3eac744d
gd1987-03-29d2t05.flac:3f827bc9a14daa0744d5ba9d3d959323
gd1987-03-29d2t06.flac:15bbb1268b24c55b1dc9cef6b5e0eda6
gd1987-03-29d3t01.flac:de65c7624bd3add7b3f153b7f6df212e
gd1987-03-29d3t02.flac:f954f2f98074230be9ce5c68660b527a
gd1987-03-29d3t03.flac:503c85c9587f42a96e7cc5c020feabf3
gd1987-03-29d3t04.flac:715de4401f07f193bd41cddacb327b3e
gd1987-03-29d3t05.flac:5165e58bcfb673fd23a1b6e5d27e52a8
gd1987-03-29d3t06.flac:dcc5125b99f43150a6c194b0d9959204
gd1987-03-29d3t07.flac:75d331468f31b5111613559744d12232
gd1987-03-29d3t08.flac:7517526cbcd80d138762698b9804f007
flac-md5
8cc293917bf6abfcd295866b7f1d65bd *gd1987-03-29d1t01.flac
5c6ac2577e8f3ba5d72de1955851d5d0 *gd1987-03-29d1t02.flac
f8afaf20ac8823d559eb0e0b79e66d07 *gd1987-03-29d1t03.flac
384866eb0eaaa24b9720d96a616b45a5 *gd1987-03-29d1t04.flac
958f8c4fbdc513dffa8b963e900dac2a *gd1987-03-29d1t05.flac
68f37694d9895cd8562b8896800e8244 *gd1987-03-29d1t06.flac
0ef0c6f43e9f98834d9e87164818524c *gd1987-03-29d1t07.flac
dbfe5cd1eec474d68e9c739a2e557272 *gd1987-03-29d1t08.flac
0cb6144ce9bc7167c28d5b051f8fa39c *gd1987-03-29d1t09.flac
857507d16499411fcdb6b21a2b051b7c *gd1987-03-29d2t01.flac
747b1b2e34b6df74e26f8acba8189785 *gd1987-03-29d2t02.flac
b788b2e365d3ed2ad7237f8a478ff76c *gd1987-03-29d2t03.flac
a3bf940066ccbff4b96d4c2d36fd396e *gd1987-03-29d2t04.flac
125439ef6c865b93eaeef4e7036def55 *gd1987-03-29d2t05.flac
dee0c64d99d355412e278c0ae1af3e81 *gd1987-03-29d2t06.flac
12484eb0826f103cddc0538bf4504a21 *gd1987-03-29d3t01.flac
6c49454fa6bfb669360c1f66fe8c88db *gd1987-03-29d3t02.flac
62a2ff942d908778fa470d3051c9c8f8 *gd1987-03-29d3t03.flac
427cde1343c23c4d0487e0c94775b9ae *gd1987-03-29d3t04.flac
3b05b6eb109968483523bb9d7d7e731e *gd1987-03-29d3t05.flac
9ea4429ab152331251db7b1f8e0c9a2c *gd1987-03-29d3t06.flac
fefad097948e1c0f15f94a918c09eea8 *gd1987-03-29d3t07.flac
8eca519840f17a0f3231134437b24924 *gd1987-03-29d3t08.flac

Comments
Add Comment
Other Sources (comments)
Audience Master Cassette... (1) flac16; Source:... (0) flac16; taper : Joe... (0) flac16; Master:... (0) flac16; Source: 2... (0) flac24; source:... (0) flac16; Robert... (1) flac24; Recording... (0) flac16; Recording... (0)
Date User Comment