Browse Collections Artists Sources   Search Dates

Add Show    List Management    Help


Grateful Dead 06/20/87
Greek Theatre, University Of California, Berkeley, CA
Comments Add Comment    Source Collectors    Add to Collection    Add to Want List    History
Source # 77988 Other Sources
Entered by Matt Vernon
Checksums flac-md5 , ffp
Disc Counts 2 / 2
Media Size
Date Circulated
Date Added
09/25/2006
09/25/2006
Source Summary flac16; Taped by Robert Bryant w/ AKG 414 B/TL mics, cardioid pattern with windscreens, ORTF-> Oade PS-> Sony PCM F1. Transfer: PCM 601-> Sony DTC2000ES DAT-> M-Audio Delta 410-> Soundforge -> Samplitude Professional V8.01 -> waves X Crackle -> ffe l6 Transfered by Rich Gastwirt. edited by Bob Loy. 
  Archive
Source Information - Download Text | Download Zip
Grateful Dead
06/20/87
Greek Theatre - University of California
Berkeley, CA

Taped by Robert Bryant w/ AKG 414 B/TL mics, cardioid pattern with windscreens,
ORTF-> Oade PS-> Sony PCM F1. Transfer: PCM 601-> Sony DTC2000ES DAT-> M-Audio
Delta 410-> Soundforge -> Samplitude Professional V8.01 -> waves X Crackle -> ffe l6
Transfered by Rich Gastwirt. edited by Bob Loy.

Disc 1 - Set 1
01  Tuning
02  Hell In A Bucket ->
03  Franklin's Tower
04  New Minglewood Blues
05  Loser
06  My Brother Esau
07  Bird Song
Set 2
08  /Space
09  Aiko Aiko
10  Looks Like Rain
11  Deal ->

Disc 2 - Set 2 (cont'd)
01 Drums ->
02 Space ->
03 Gimme Some Lovin' ->
04 All Along The Watchtower ->
05 The Wheel ->
06 The Other One ->
07 Wharf Rat ->
08 Sugar Magnolia ->
09 Sunshine Daydream
Encore - Adam's Family Tuning ->
10 One More Saturday Night

notes:reduced the effect of balloon pops d1t01 2:43, d1t07 2:00
light static through out d1t02 clears up, light static at the end of d1t04
balloon pops in d1t08 left untouched,considered patching but the sbd is
cut also, it only has 5 additional seconds slight bit of static present in
the 2nd space, ran various portions through waves xcrackle to reduce static.



    length     expanded size   cdr  WAVE problems filename
     2:22.25       25107644    ---   --   ---xx   gd87-06-20d1t01.flac
     6:18.10       66702764    ---   --   ---xx   gd87-06-20d1t02.flac
     8:55.31       94446956    ---   --   ---xx   gd87-06-20d1t03.flac
     8:21.64       88526972    ---   --   ---xx   gd87-06-20d1t04.flac
     9:20.56       98915756    ---   --   ---xx   gd87-06-20d1t05.flac
     5:45.30       60928604    ---   --   ---xx   gd87-06-20d1t06.flac
     9:43.49      102956492    ---   --   ---xx   gd87-06-20d1t07.flac
     1:37.43       17211980    ---   --   ---xx   gd87-06-20d1t08.flac
     9:04.20       96008684    ---   --   ---xx   gd87-06-20d1t09.flac
     8:18.74       88021292    ---   --   ---xx   gd87-06-20d1t10.flac
     6:21.35       67290764    ---   --   ---xx   gd87-06-20d1t11.flac
    76:09.62      806117908 B                     (totals for 11 files, 0.5243 overall compression ratio)


    length     expanded size   cdr  WAVE problems filename
     5:52.13       62123420    ---   --   ---xx   gd87-06-20d2t01.flac
    14:52.08      157367660    ---   --   ---xx   gd87-06-20d2t02.flac
     4:54.70       52026284    ---   --   ---xx   gd87-06-20d2t03.flac
     4:36.48       48799340    ---   --   ---xx   gd87-06-20d2t04.flac
     4:34.70       48498284    ---   --   ---xx   gd87-06-20d2t05.flac
     4:53.06       51699356    ---   --   ---xx   gd87-06-20d2t06.flac
     8:50.07       93508508    ---   --   ---xx   gd87-06-20d2t07.flac
     5:17.04       55928252    ---   --   ---xx   gd87-06-20d2t08.flac
     7:17.56       77218556    ---   --   ---xx   gd87-06-20d2t09.flac
     4:56.59       52353212    ---   --   ---xx   gd87-06-20d2t10.flac
    66:05.41      699522872 B                     (totals for 10 files, 0.5297 overall compression ratio)


A GEMS production -+-+- www.shnflac.net -+-+- September,25th 2006
Show Checksums
flac-md5
27770adac665c7256c02221594f91561 *gd87-06-20d1t01.flac
af02e53429e07587d105c68fe725bed7 *gd87-06-20d1t02.flac
9f77e7de30347bb7ded4b133ca644a7f *gd87-06-20d1t03.flac
a4e5a7d08b5d655507b9f005691490a5 *gd87-06-20d1t04.flac
eecfb4a7a64c9c7c96a6cd7d122327a7 *gd87-06-20d1t05.flac
8a3e91ad9f5f7b1b77096aa272b972b3 *gd87-06-20d1t06.flac
6e0142acc00e9d57058070b80f33b181 *gd87-06-20d1t07.flac
b8a205fdaeb842846f978861fad36c0a *gd87-06-20d1t08.flac
207c08abb8ec6bf14cf1a1fa0bf2b5b0 *gd87-06-20d1t09.flac
1d7231a3e02356e883c2350b9f41fc2a *gd87-06-20d1t10.flac
87f7308dfe0476dbf9362c2d80c61220 *gd87-06-20d1t11.flac
b06f9c1c5c1d5b178aeb701fe396747f *gd87-06-20d2t01.flac
0a1d04c0b103c2109bde46481a91bd86 *gd87-06-20d2t02.flac
7870323ce21db0956155b46326d9be0e *gd87-06-20d2t03.flac
f764634022945b2c6b3803ee23cb36ef *gd87-06-20d2t04.flac
193fac67b96945af7622d68f6b6ca24a *gd87-06-20d2t05.flac
d42ebb9a0f4332d6a915d788a4e084d2 *gd87-06-20d2t06.flac
4562382c63a42c16d42601afd9673d5d *gd87-06-20d2t07.flac
ab09954c7a2a221d1c32259cd3312ac3 *gd87-06-20d2t08.flac
add370971da6e17021e80e2f9aa27a9d *gd87-06-20d2t09.flac
557cd89cc99f89aaff4f91d266592182 *gd87-06-20d2t10.flac
ffp
gd87-06-20d1t01.flac:0543cc26bcc1d1621e6227effc882aef
gd87-06-20d1t02.flac:f261c7a53f7a5d5470459901478f2d1e
gd87-06-20d1t03.flac:314b18c9365657288fc6a07a596ec635
gd87-06-20d1t04.flac:9ea57bba5466551c2925826126a38e72
gd87-06-20d1t05.flac:d48e43a2415d25aca8a5b0dd4ecd53c1
gd87-06-20d1t06.flac:91b2fa2632e0c14605ddf17936b15bd4
gd87-06-20d1t07.flac:06c7b883a0cfe691cc16fd77cc541942
gd87-06-20d1t08.flac:e897f4425611482da3c90903ccd62e67
gd87-06-20d1t09.flac:b285b8823bafd352602fb34c27be5080
gd87-06-20d1t10.flac:e52d2474cc0e66e81ea04481db3b42ad
gd87-06-20d1t11.flac:8c2a26111b2b58537db0a290f1f98bec
gd87-06-20d2t01.flac:f4306871c2f805c4cc1ded19a3c9e5f5
gd87-06-20d2t02.flac:44a76c8d0d5e9ad4c86ed4d8bd0fc40d
gd87-06-20d2t03.flac:5df3acfbde1c68496be09bc9af8edd70
gd87-06-20d2t04.flac:03e43bdc8fdd294efdcdc7f1dca1654c
gd87-06-20d2t05.flac:ec0be2d60db580077dc16969b5bb57a6
gd87-06-20d2t06.flac:c304b6cb633359f0e4b76ba8a8931e82
gd87-06-20d2t07.flac:0b81dcb94e00547ccf0abc8116d0afb1
gd87-06-20d2t08.flac:555e9269e99f3f7f2828acc2737d36f7
gd87-06-20d2t09.flac:d209ea71c3a948d2ad44e24d3513c308
gd87-06-20d2t10.flac:209f78e8cd7c161a02390566391faae0

Comments
Add Comment
Other Sources (comments)
SBD/Matrix>Cm>PCM>DAT>CD;... (0) Master Soundboard Cassette>... (0) flac16; Source:... (0) flac16; Recording... (0) flac16; Recording... (2) DTS Audio 5.1;... (0) flac24; Taper: Danny... (0) flac16; Taper: Danny... (0) flac24; Source:... (0) flac16; Source: AKG... (0)
Date User Comment