Browse Collections Artists Sources   Search Dates

Add Show    List Management    Help


Drive-By Truckers 09/17/06
House Of Blues, Myrtle Beach, SC
Comments Add Comment    Source Collectors    Add to Collection    Add to Want List    History
Source # 78026 Other Sources
Entered by Kyle pike
Checksums flac.ffp
Disc Counts 2 / 2
Media Size
Date Circulated
Date Added
09/23/06
09/25/2006
Source Summary AKG c2000's > MP-2 > M1 (Roy Shuler) 
Source Information - Download Text | Download Zip
Drive-By Truckers
09/17/06
House Of Blues
Myrtle Beach,SC

source:   AKG c2000's > MP-2 > M1 @ 48k
location: FOB DFC 20'
transfer: da-20mkII > audiophile 24/96 > wavelab 5.01b > cd wave > flac level 6

taped by Taper Roy (Roy Shuler)
transferred by Gordon Wilson

disc one:

1. Sandwiches for the Road
2. One of These Days
3. The Day John Henry Died
4. Lookout Mountain
5. Space City
6. Puttin' People on the Moon
7. Decoration Day
8. Carl Perkins' Cadillac
9. Goodbye
10. Never Gonna Change
11. Story of the Road Case
12. Road Cases
13. Gravity's Gone
14. Feb 14

disc two:

1. Dress Blues
2. The Living Bubba
3. Careless

encore:
4. Outfit
5. Too Much Sex (Too Little Jesus)
6. Love Like This
7. Life in the Factory
8. Zip City
9. Moonlight Mile
10. Let There Be Rock
11. Buttholeville

notes:
thanks to Roy for the dats to transfer!
48 > 44.1 done with wavelab 5.01b
fades added at the beginning and end of set with wavelab 5.01b
sector boundaries verified with shntool v2.0.3

shntool output:
    length     expanded size   cdr  WAVE problems filename
     7:15.66       76889276    ---   --   ---xx   dbt2006-09-17d1t01.flac
     5:23.68       57137180    ---   --   ---xx   dbt2006-09-17d1t02.flac
     4:03.54       42992252    ---   --   ---xx   dbt2006-09-17d1t03.flac
     5:44.48       60794540    ---   --   ---xx   dbt2006-09-17d1t04.flac
     5:00.20       52967084    ---   --   ---xx   dbt2006-09-17d1t05.flac
     6:04.46       64317836    ---   --   ---xx   dbt2006-09-17d1t06.flac
     6:28.16       68480876    ---   --   ---xx   dbt2006-09-17d1t07.flac
     5:42.47       60439388    ---   --   ---xx   dbt2006-09-17d1t08.flac
     6:51.70       72665084    ---   --   ---xx   dbt2006-09-17d1t09.flac
     5:44.50       60799244    ---   --   ---xx   dbt2006-09-17d1t10.flac
     4:22.01       46219196    ---   --   ---xx   dbt2006-09-17d1t11.flac
     3:05.44       32737532    ---   --   ---xx   dbt2006-09-17d1t12.flac
     3:37.48       38391740    ---   --   ---xx   dbt2006-09-17d1t13.flac
     4:11.32       44351708    ---   --   ---xx   dbt2006-09-17d1t14.flac
     4:31.25       47863244    ---   --   ---xx   dbt2006-09-17d2t01.flac
     6:32.61       69292316    ---   --   ---xx   dbt2006-09-17d2t02.flac
     4:51.29       51400652    ---   --   ---xx   dbt2006-09-17d2t03.flac
     7:06.41       75242876    ---   --   ---xx   dbt2006-09-17d2t04.flac
     4:06.40       43488524    ---   --   ---xx   dbt2006-09-17d2t05.flac
     7:03.49       74732492    ---   --   ---xx   dbt2006-09-17d2t06.flac
     6:02.19       63901532    ---   --   ---xx   dbt2006-09-17d2t07.flac
     5:51.45       62022284    ---   --   ---xx   dbt2006-09-17d2t08.flac
     4:59.19       52788332    ---   --   ---xx   dbt2006-09-17d2t09.flac
     6:06.40       64656524    ---   --   ---xx   dbt2006-09-17d2t10.flac
     8:19.32       88098908    ---   --   ---xx   dbt2006-09-17d2t11.flac
   139:08.35        1404.45 MB                    (totals for 25 files, 0.5738 overall compression ratio)
Show Checksums
flac.ffp
dbt2006-09-17d1t01.flac:3f1b83f7a3f68d9c5671918488690d69
dbt2006-09-17d1t02.flac:01fc8e49edd0f08763dd1853a65c8a79
dbt2006-09-17d1t03.flac:2306b089562c631b59fd3ca0e6481177
dbt2006-09-17d1t04.flac:fbff546366b913fc490ff53928bfae53
dbt2006-09-17d1t05.flac:e2185ec571c3d118b4c57c4c32b2287c
dbt2006-09-17d1t06.flac:adec0a1d16e4f7608d461f77bb5fb6f1
dbt2006-09-17d1t07.flac:4a4f131ac832da545efbb91d64249838
dbt2006-09-17d1t08.flac:906c99694350267477108820b0c936fb
dbt2006-09-17d1t09.flac:9aa5cfc46c8bd3f804a549625c3f0996
dbt2006-09-17d1t10.flac:a726329ac1d82e8c100cc43657db8333
dbt2006-09-17d1t11.flac:1ad72b10c1e0cb267701e7a632554c63
dbt2006-09-17d1t12.flac:2182278de1ead627277f2f85a061cbbf
dbt2006-09-17d1t13.flac:9baf5ec556d26175e75f673e27a0649d
dbt2006-09-17d1t14.flac:3597670b817c960c3f9ce75a3f751f6f
dbt2006-09-17d2t01.flac:7d9fcef9bfc734756fbfdfde1a83d145
dbt2006-09-17d2t02.flac:ab55f34527d26c48eb05b19d9c325348
dbt2006-09-17d2t03.flac:f9e9c948b2578d9ab9838e868b1f265b
dbt2006-09-17d2t04.flac:5210ef5928485ccfbe798ac17e5b2e79
dbt2006-09-17d2t05.flac:d391bbadbfafa5e967a35877e26f3402
dbt2006-09-17d2t06.flac:8d1ab8e7055094509c0666390830df80
dbt2006-09-17d2t07.flac:6f899153638050c6316e0b8b52f68d40
dbt2006-09-17d2t08.flac:6a8e792702ca7ff76575f38005e2abfd
dbt2006-09-17d2t09.flac:ea1af04f8a699f46fd0c0be0f07afc64
dbt2006-09-17d2t10.flac:8c4a81b709d39d2e56a3a4c7fa1621f6
dbt2006-09-17d2t11.flac:9b063c048fa8519cb6e20b4b7843772b

Comments
Add Comment
Date User Comment