Browse Collections Artists Sources   Search Dates

Add Show    List Management    Help


Grateful Dead 04/04/87
The Centrum, Worcester, MA
Comments Add Comment    Source Collectors    Add to Collection    Add to Want List    History
Source # 78055 Other Sources
Entered by Matt Vernon
Checksums ffp , flac-md5
Disc Counts 2 / 2
Media Size
Date Circulated
Date Added
09/25/2006
09/26/2006
Source Summary flac16; Source: AUD, Nakamichi CM-300's with CP-4 shotgun capsules > Sony TC-D5M > Maxell MX-90 cassettes, with no Dolby. Transfer: MAC > Sony TC-D5M (no Dolby) > Marantz CDR-500 > EAC > Soundforge > CD-Wave > TLH v.1.0.0.72 (for SBE-OK, FLAC compression, and checksums) > FLAC 
  Archive
Source Information - Download Text | Download Zip
GRATEFUL DEAD
The Centrum
Worcester MA
04-04-1987

Disc One (60:32)

01 crowd & tuning
02 Touch of Grey >
03 Greatest Story Ever Told
04 Althea >
05 El Paso
06 Tennessee Jed
07 Cassidy
08 Good Time Blues
09 Box of Rain
10 The Promised Land
-- set break --

Disc Two (72:31)

01 crowd & tuning
02 Iko >
03 Playin' in the Band >
04 Comes a Time >
05 Hand Jive >
06 Drums >
07 Space >
08 Truckin' >
09 Playin' Reprise >
10 Morning Dew
-- encore --
11 crowd & tuning
12 One More Saturday Night

Source: AUD, Nakamichi CM-300's with CP-4 shotgun capsules >
Sony TC-D5M > Maxell MX-90 cassettes, with no Dolby. Set up
in the first row in front of the soundboard, in the center.
Mics on a stand at aprx six feet high, kept low by request
of Healy. Mics angled up slightly and aimed just to the
inside of the stacks.

Transfer: MAC > Sony TC-D5M (no Dolby) > Marantz CDR-500 >
EAC > Soundforge > CD-Wave > TLH v.1.0.0.72 (for SBE-OK,
FLAC compression, and checksums) > FLAC, September 2006.

Notes: Patches from Shnid-9362 were used to cover the tape
flips: at the end of Cassidy (6:24 > 6:34), and in Space
(3:39 > 4:07). Soundforge was used for the patches and to
make fades. Taped and transfered by Andrew F.  ***ENJOY***


MD-5

e85902143321bb921b10cfc77766ed28 *gd1987-04-04d1t01.flac
41b4e91e07b6c38f318ac40a5b72bf5f *gd1987-04-04d1t02.flac
313a71172b4d4dac3ddef13be09895e9 *gd1987-04-04d1t03.flac
042719a954406bf0603d0d0ecd7ad6aa *gd1987-04-04d1t04.flac
0aff27cf1e29c72c7c3287335930ad78 *gd1987-04-04d1t05.flac
3ca7a4efa4597a9f06a56aaca42cb3ae *gd1987-04-04d1t06.flac
709827ad91b8e9945486a0d2727c0509 *gd1987-04-04d1t07.flac
04983846e2dfa6a90675057f44f7a8b4 *gd1987-04-04d1t08.flac
2a495790376069ddb9325313af05b1db *gd1987-04-04d1t09.flac
4f657a10c694405878fdc3f5a5c6f861 *gd1987-04-04d1t10.flac
f6bc6a12d915a7da41aafb2dff1356c4 *gd1987-04-04d2t01.flac
6cc9a2eaff58dfd39abb17a9c4d89d68 *gd1987-04-04d2t02.flac
c4651393800e80421964d214b61d27b7 *gd1987-04-04d2t03.flac
838083483a9be4adfa9d31f62fb53419 *gd1987-04-04d2t04.flac
68777eddd2ab96223165bdf13fce3e12 *gd1987-04-04d2t05.flac
9ea280f23feb918761a457aacdca08be *gd1987-04-04d2t06.flac
be0566037f90044c623cfc7fa7a29073 *gd1987-04-04d2t07.flac
35577d58353a133f378bf5e2c1acecb8 *gd1987-04-04d2t08.flac
cc02b163ceeddf00c5c260571a385a9c *gd1987-04-04d2t09.flac
7b66b089bcb546aa0eb84aa5f68536b9 *gd1987-04-04d2t10.flac
16e071738c250040a86b5956e557c7dc *gd1987-04-04d2t11.flac
f514adcd7830ca9149b696df4be7b570 *gd1987-04-04d2t12.flac

FFP

gd1987-04-04d1t01.flac:1fecfbfbd20e799e8d8627b7cedfcb8b
gd1987-04-04d1t02.flac:a107e72d2f199a2b98922694f0cd4d45
gd1987-04-04d1t03.flac:5b09ec8956285d7bab28f6b26e281e40
gd1987-04-04d1t04.flac:8c770fe93d41d5fb428c0a6d13323483
gd1987-04-04d1t05.flac:8c46895f436c073f727735e3f7f084d5
gd1987-04-04d1t06.flac:532c1b1d9f8ae0f5877962daa091d898
gd1987-04-04d1t07.flac:3e8cfd268d35e55bcaed13ef73475a68
gd1987-04-04d1t08.flac:7934246322d1f96db4b15d175e089e33
gd1987-04-04d1t09.flac:c876cd6b1094bf829b5c07c56cd3cb9c
gd1987-04-04d1t10.flac:fcb05008826ddc22bc9b2613deb969f7
gd1987-04-04d2t01.flac:44991138f238b0cb244b8156a2cfc96d
gd1987-04-04d2t02.flac:23f3feac451059d72efd985f81841a31
gd1987-04-04d2t03.flac:50b09e65c61e8516ffa52ad3db52f05d
gd1987-04-04d2t04.flac:9c59a891c8405a5b71a4087baffd337b
gd1987-04-04d2t05.flac:a1ea97c5172463e43e77dc308d1779bd
gd1987-04-04d2t06.flac:5200109b90aa13b9fa49bbf162e55fd9
gd1987-04-04d2t07.flac:060e67127f298eadc05a74dee15246be
gd1987-04-04d2t08.flac:91796c517ddbf5a1ea16009bea5c013f
gd1987-04-04d2t09.flac:5c7f80a3df51836e8185b367a2cca5b2
gd1987-04-04d2t10.flac:6f379ad10f95b271f5106d6c9cdaa829
gd1987-04-04d2t11.flac:42ee858c45a8c828cb21437f36bf8a98
gd1987-04-04d2t12.flac:edf3fe226c251cd3bccc2c92cd591e95

SHNTOOL

    length     expanded size   cdr  WAVE problems filename
     2:07.21       22452236    ---   --   ---xx   gd1987-04-04d1t01.flac
     6:08.66       65070476    ---   --   ---xx   gd1987-04-04d1t02.flac
     4:25.26       46807196    ---   --   ---xx   gd1987-04-04d1t03.flac
     7:49.34       82811612    ---   --   ---xx   gd1987-04-04d1t04.flac
     6:24.33       67815260    ---   --   ---xx   gd1987-04-04d1t05.flac
    10:03.72      106538588    ---   --   ---xx   gd1987-04-04d1t06.flac
     6:34.17       69541628    ---   --   ---xx   gd1987-04-04d1t07.flac
     7:30.05       79391804    ---   --   ---xx   gd1987-04-04d1t08.flac
     4:54.04       51871052    ---   --   ---xx   gd1987-04-04d1t09.flac
     4:34.73       48505340    ---   --   ---xx   gd1987-04-04d1t10.flac
     0:39.22        6931388    ---   --   ---xx   gd1987-04-04d2t01.flac
     6:44.26       71326796    ---   --   ---xx   gd1987-04-04d2t02.flac
    10:20.32      109443308    ---   --   ---xx   gd1987-04-04d2t03.flac
     8:09.74       86433692    ---   --   ---xx   gd1987-04-04d2t04.flac
     6:17.29       66571052    ---   --   ---xx   gd1987-04-04d2t05.flac
     7:53.05       83449004    ---   --   ---xx   gd1987-04-04d2t06.flac
     6:21.61       67351916    ---   --   ---xx   gd1987-04-04d2t07.flac
     8:14.44       87245132    ---   --   ---xx   gd1987-04-04d2t08.flac
     3:20.07       35296508    ---   --   ---xx   gd1987-04-04d2t09.flac
     9:14.36       97810316    ---   --   ---xx   gd1987-04-04d2t10.flac
     0:18.07        3191708    ---   --   ---xx   gd1987-04-04d2t11.flac
     4:57.45       52496684    ---   --   ---xx   gd1987-04-04d2t12.flac
   133:03.64     1408352696 B                     (totals for 22 files, 0.6364 overall compression ratio)
There were no sector boundary errors.
Show Checksums
ffp
gd1987-04-04d1t01.flac:1fecfbfbd20e799e8d8627b7cedfcb8b
gd1987-04-04d1t02.flac:a107e72d2f199a2b98922694f0cd4d45
gd1987-04-04d1t03.flac:5b09ec8956285d7bab28f6b26e281e40
gd1987-04-04d1t04.flac:8c770fe93d41d5fb428c0a6d13323483
gd1987-04-04d1t05.flac:8c46895f436c073f727735e3f7f084d5
gd1987-04-04d1t06.flac:532c1b1d9f8ae0f5877962daa091d898
gd1987-04-04d1t07.flac:3e8cfd268d35e55bcaed13ef73475a68
gd1987-04-04d1t08.flac:7934246322d1f96db4b15d175e089e33
gd1987-04-04d1t09.flac:c876cd6b1094bf829b5c07c56cd3cb9c
gd1987-04-04d1t10.flac:fcb05008826ddc22bc9b2613deb969f7
gd1987-04-04d2t01.flac:44991138f238b0cb244b8156a2cfc96d
gd1987-04-04d2t02.flac:23f3feac451059d72efd985f81841a31
gd1987-04-04d2t03.flac:50b09e65c61e8516ffa52ad3db52f05d
gd1987-04-04d2t04.flac:9c59a891c8405a5b71a4087baffd337b
gd1987-04-04d2t05.flac:a1ea97c5172463e43e77dc308d1779bd
gd1987-04-04d2t06.flac:5200109b90aa13b9fa49bbf162e55fd9
gd1987-04-04d2t07.flac:060e67127f298eadc05a74dee15246be
gd1987-04-04d2t08.flac:91796c517ddbf5a1ea16009bea5c013f
gd1987-04-04d2t09.flac:5c7f80a3df51836e8185b367a2cca5b2
gd1987-04-04d2t10.flac:6f379ad10f95b271f5106d6c9cdaa829
gd1987-04-04d2t11.flac:42ee858c45a8c828cb21437f36bf8a98
gd1987-04-04d2t12.flac:edf3fe226c251cd3bccc2c92cd591e95
flac-md5
e85902143321bb921b10cfc77766ed28 *gd1987-04-04d1t01.flac
41b4e91e07b6c38f318ac40a5b72bf5f *gd1987-04-04d1t02.flac
313a71172b4d4dac3ddef13be09895e9 *gd1987-04-04d1t03.flac
042719a954406bf0603d0d0ecd7ad6aa *gd1987-04-04d1t04.flac
0aff27cf1e29c72c7c3287335930ad78 *gd1987-04-04d1t05.flac
3ca7a4efa4597a9f06a56aaca42cb3ae *gd1987-04-04d1t06.flac
709827ad91b8e9945486a0d2727c0509 *gd1987-04-04d1t07.flac
04983846e2dfa6a90675057f44f7a8b4 *gd1987-04-04d1t08.flac
2a495790376069ddb9325313af05b1db *gd1987-04-04d1t09.flac
4f657a10c694405878fdc3f5a5c6f861 *gd1987-04-04d1t10.flac
f6bc6a12d915a7da41aafb2dff1356c4 *gd1987-04-04d2t01.flac
6cc9a2eaff58dfd39abb17a9c4d89d68 *gd1987-04-04d2t02.flac
c4651393800e80421964d214b61d27b7 *gd1987-04-04d2t03.flac
838083483a9be4adfa9d31f62fb53419 *gd1987-04-04d2t04.flac
68777eddd2ab96223165bdf13fce3e12 *gd1987-04-04d2t05.flac
9ea280f23feb918761a457aacdca08be *gd1987-04-04d2t06.flac
be0566037f90044c623cfc7fa7a29073 *gd1987-04-04d2t07.flac
35577d58353a133f378bf5e2c1acecb8 *gd1987-04-04d2t08.flac
cc02b163ceeddf00c5c260571a385a9c *gd1987-04-04d2t09.flac
7b66b089bcb546aa0eb84aa5f68536b9 *gd1987-04-04d2t10.flac
16e071738c250040a86b5956e557c7dc *gd1987-04-04d2t11.flac
f514adcd7830ca9149b696df4be7b570 *gd1987-04-04d2t12.flac

Comments
Add Comment
Other Sources (comments)
FOB Schoeps > PCM > DAT >... (1) flac16; taper : Joe... (0) flac16; Recording... (0) flac16; Recording... (0) flac16; FOB>AKG... (0) flac16; Master... (0) flac24; Master... (0) flac24; source:... (0) flac24; Recording... (0) flac24; Recording... (0) flac16; Recording... (0) flac16; Recording... (0)
Date User Comment