Browse Collections Artists Sources   Search Dates

Add Show    List Management    Help


Drive-By Truckers 09/14/06
Capitol Theatre, Macon, GA
Comments Add Comment    Source Collectors    Add to Collection    Add to Want List    History
Source # 78143 Other Sources
Entered by Kyle pike
Checksums flac.ffp
Disc Counts 2 / 2
Media Size
Date Circulated
Date Added
09/24/06
09/27/2006
Source Summary AKG c2000's > MP-2 > M1 (Roy Shuler)  
Source Information - Download Text | Download Zip
Drive-By Truckers
09/14/06
Capitol Theatre
Macon, GA

source:   AKG c2000's > MP-2 > M1 @ 48k
location: ROC behind board 25'
transfer: da-20mkII > audiophile 24/96 > wavelab 5.01b > cd wave > flac level 6

taped by Taper Roy (Roy Shuler)
transferred by Gordon Wilson

disc one:

1. Ronnie and Neil
2. Zip City
3. Easy On Yourself
4. Feb 14
5. Marry Me
6. My Sweet Annette
7. Goddamn Lonely Love
8. Steve McQueen
9. Carl Perkins' Cadillac
10. Dead Drunk and Naked
11. Guitar Man Upstairs
12. Dress Blues
13. Mama Bake a Pie

disc two:

1. Gravity's Gone
2. Aftermath USA
3. Sinkhole
4. Never Gonna Change
5. Buttholeville

encore:
6. Banter/Happy Birthday to Cooley
7. Women Without Whiskey
8. Moonlight Mile
9. Let There Be Rock *
10. Shut Up and Get on the Plane
11. Lookout Mountain
12. Angels and Fuselage

notes:
* one small spot of digi static on the master DAT
thanks to Roy for the dats to transfer!
48 > 44.1 done with wavelab 5.01b
fades added at the beginning and end of set with wavelab 5.01b
sector boundaries verified with shntool v2.0.3

shntool output:
    length     expanded size   cdr  WAVE problems filename
     6:02.45       63962684    ---   --   ---xx   dbt2006-09-14d1t01.flac
     5:33.48       58854140    ---   --   ---xx   dbt2006-09-14d1t02.flac
     3:41.26       39045596    ---   --   ---xx   dbt2006-09-14d1t03.flac
     3:33.69       37735532    ---   --   ---xx   dbt2006-09-14d1t04.flac
     5:54.52       62567948    ---   --   ---xx   dbt2006-09-14d1t05.flac
     5:43.42       60604028    ---   --   ---xx   dbt2006-09-14d1t06.flac
     5:42.43       60429980    ---   --   ---xx   dbt2006-09-14d1t07.flac
     6:42.33       70990460    ---   --   ---xx   dbt2006-09-14d1t08.flac
     5:41.13       60183020    ---   --   ---xx   dbt2006-09-14d1t09.flac
     5:44.47       60792188    ---   --   ---xx   dbt2006-09-14d1t10.flac
     4:38.12       49067468    ---   --   ---xx   dbt2006-09-14d1t11.flac
     4:47.29       50695052    ---   --   ---xx   dbt2006-09-14d1t12.flac
     4:05.47       43328588    ---   --   ---xx   dbt2006-09-14d1t13.flac
     3:37.28       38344700    ---   --   ---xx   dbt2006-09-14d2t01.flac
     4:13.27       44692748    ---   --   ---xx   dbt2006-09-14d2t02.flac
     3:54.70       41442284    ---   --   ---xx   dbt2006-09-14d2t03.flac
     5:35.73       59265740    ---   --   ---xx   dbt2006-09-14d2t04.flac
     8:38.17       91415228    ---   --   ---xx   dbt2006-09-14d2t05.flac
     3:59.56       42291356    ---   --   ---xx   dbt2006-09-14d2t06.flac
     4:42.28       49810700    ---   --   ---xx   dbt2006-09-14d2t07.flac
     5:07.44       54258332    ---   --   ---xx   dbt2006-09-14d2t08.flac
     7:41.63       81468620    ---   --   ---xx   dbt2006-09-14d2t09.flac
     4:19.33       45765260    ---   --   ---xx   dbt2006-09-14d2t10.flac
     4:53.65       51838124    ---   --   ---xx   dbt2006-09-14d2t11.flac
     9:18.07       98447708    ---   --   ---xx   dbt2006-09-14d2t12.flac
   133:54.42        1351.64 MB                    (totals for 25 files, 0.5810 overall compression ratio)
Show Checksums
flac.ffp
dbt2006-09-14d1t01.flac:2687434cfaee1418156b0ce5ffadac7e
dbt2006-09-14d1t02.flac:8a737e11b87d1647775218b2dc4a263f
dbt2006-09-14d1t03.flac:5e18c351729bb2b39091c9c7a57a6d3a
dbt2006-09-14d1t04.flac:57a4a3e12200ef911ad9db308a4a86d2
dbt2006-09-14d1t05.flac:d117e7c1691ccae9314da3e1d012fa56
dbt2006-09-14d1t06.flac:752c6c86ac2daae110309d37819a22a6
dbt2006-09-14d1t07.flac:b3c24bbdacb26e811391e1bb58a8d79d
dbt2006-09-14d1t08.flac:5db653c9312d8e7738babe62fe3f2136
dbt2006-09-14d1t09.flac:9caf1db7bc9a1af1b1b3f999dd7c41d3
dbt2006-09-14d1t10.flac:e2b6f6b0f29b1ea11685af2f10b3c1dd
dbt2006-09-14d1t11.flac:89859d7c9b10e7895651de726ab803ce
dbt2006-09-14d1t12.flac:bebb883bc40e752b75ba9adc2854ae7c
dbt2006-09-14d1t13.flac:ba853241588d5051e5656855cfcd1260
dbt2006-09-14d2t01.flac:c6e052d5a27e81266ef284631e418f38
dbt2006-09-14d2t02.flac:1f4aac80a6ac9bf6574979693a00f7c8
dbt2006-09-14d2t03.flac:7bf5b450f3400f5ba7b7c2013aab97fd
dbt2006-09-14d2t04.flac:5c7d978b72da16f2686a107e9c566dc1
dbt2006-09-14d2t05.flac:c9d25239c49f14b31e9216cdac2e43c8
dbt2006-09-14d2t06.flac:a9edb34a4556d1f5840ccd091b960e9d
dbt2006-09-14d2t07.flac:43055b2cbc5c1fbe7300446aa0edb14e
dbt2006-09-14d2t08.flac:c5c999a7129b963b4f2de35f44e407b2
dbt2006-09-14d2t09.flac:3d49279b748d80525d777612a18893e7
dbt2006-09-14d2t10.flac:7cdc101ac3e5dc9f78524c985e0f2bd8
dbt2006-09-14d2t11.flac:ab16fb5bbc389a5432c8d111f69e2461
dbt2006-09-14d2t12.flac:5bd85affc36320a7c4b8eefabbd04cd2

Comments
Add Comment
Date User Comment