Browse Collections Artists Sources   Search Dates

Add Show    List Management    Help


Wilco 03/09/06
Classic Center Exhibit Hall, Athens, GA
Comments Add Comment    Source Collectors    Add to Collection    Add to Want List    History
Source # 78284 Other Sources
Entered by Tom Wilder
Checksums
Disc Counts 0 / 0
Media Size
Date Circulated
Date Added
03/12/06
09/28/2006
Source Summary Wilco 2006-03-09(FLAC) Classic Center - Athens, GA 
Source Information - Download Text | Download Zip
Wilco - 3/9/06
Classic Center - Athens, GA

Disc One:

01) The Late Greats
02) Handshake Drugs
03) I Am Trying To Break Your Heart
04) Forget The Flowers
05) One By One
06) At Least That\'s What You Said
07) Jesus, Etc.
08) Hummingbird
09) Theologians
10) I\'m Always In Love
11) In A Future Age

Disc Two:

01) The Good Part
02) Walken
03) I\'m The Man Who Loves You
04) Poor Places
05) A Shot In The Arm
06) E:) \"Maybe The Sun Will Shine Today\"
07) Passenger Side
08) War On War
09) Heavy Metal Drummer
10) Kingpin
11) E2:) Spiders (Kidsmoke)

www.wilcoworld.net

Source: Neumann KM-184(DIN)> Lunatec V2> Nomad Jukebox 3
Transfer: Nomad Jukebox 3> Firewire> Cool Edit Pro(DSP)> CDWave> FLAC Frontend

Recorded and transferred by Sloan Simpson

wilco2006-03-09d1t01.flac:ff4285522d8843c210baae14cba9eb04
wilco2006-03-09d1t02.flac:9fb28b1d4c24e199200791c351619e8b
wilco2006-03-09d1t03.flac:fc259cee05463804d247948d597cbd47
wilco2006-03-09d1t04.flac:4fede15b83df507087c1a23aac5ac6ec
wilco2006-03-09d1t05.flac:1b75a756f06f522f96918478a3ea8e24
wilco2006-03-09d1t06.flac:8ed1df0409e518a15f7bfaf14b31f420
wilco2006-03-09d1t07.flac:afd2727daba61431dc08743fc5ca592a
wilco2006-03-09d1t08.flac:27de98d3e30a16e603cc98c02ea9c27f
wilco2006-03-09d1t09.flac:c8d7ccab59c828602770c88cf97c4e28
wilco2006-03-09d1t10.flac:d22e592785f2f8095faf5df651d1104e
wilco2006-03-09d1t11.flac:42c444f4dacc017ddb65accf02dffb0e
wilco2006-03-09d2t01.flac:49ee69d8022862bad463a675765fdb8d
wilco2006-03-09d2t02.flac:4ae1f82b1f3def559b75ae789d687ac4
wilco2006-03-09d2t03.flac:084e389cf874013921a009c3a8344f66
wilco2006-03-09d2t04.flac:04b33a090bb83558caaab7537c1ab084
wilco2006-03-09d2t05.flac:6d3aa177da34f2e72fc3e87b58205873
wilco2006-03-09d2t06.flac:6c8c5ae16a2cf2bafa2c61cada473ea6
wilco2006-03-09d2t07.flac:57593d002f48f522460990e7f6de37a5
wilco2006-03-09d2t08.flac:5946baeacc939c1531131cae2ed0351f
wilco2006-03-09d2t09.flac:5c93b99e309247a5e53d2300ac2622c6
wilco2006-03-09d2t10.flac:8b73bd4e22f408c48789a26a71fb2256
wilco2006-03-09d2t11.flac:d6f98c533fa9c4ff92f469458faefb82

    length     expanded size   cdr  WAVE problems filename
     3:51.69       40910732    ---   --   ---xx   wilco2006-03-09d1t01.flac
     6:12.51       65740796    ---   --   ---xx   wilco2006-03-09d1t02.flac
     6:10.42       65366828    ---   --   ---xx   wilco2006-03-09d1t03.flac
     3:07.17       33026828    ---   --   ---xx   wilco2006-03-09d1t04.flac
     3:48.05       40231004    ---   --   ---xx   wilco2006-03-09d1t05.flac
     5:32.41       58661276    ---   --   ---xx   wilco2006-03-09d1t06.flac
     4:48.50       50920844    ---   --   ---xx   wilco2006-03-09d1t07.flac
     3:35.31       37998956    ---   --   ---xx   wilco2006-03-09d1t08.flac
     3:40.11       38833916    ---   --   ---xx   wilco2006-03-09d1t09.flac
     4:01.73       42684140    ---   --   ---xx   wilco2006-03-09d1t10.flac
     3:44.09       39534812    ---   --   ---xx   wilco2006-03-09d1t11.flac
     3:55.73       41625740    ---   --   ---xx   wilco2006-03-09d2t01.flac
     4:22.20       46263884    ---   --   ---xx   wilco2006-03-09d2t02.flac
     3:50.66       40727276    ---   --   ---xx   wilco2006-03-09d2t03.flac
     5:50.37       61827068    ---   --   ---xx   wilco2006-03-09d2t04.flac
     6:44.23       71319740    ---   --   ---xx   wilco2006-03-09d2t05.flac
     3:45.61       39833516    ---   --   ---xx   wilco2006-03-09d2t06.flac
     3:37.44       38382332    ---   --   ---xx   wilco2006-03-09d2t07.flac
     4:29.20       47498684    ---   --   ---xx   wilco2006-03-09d2t08.flac
     3:37.06       38292956    ---   --   ---xx   wilco2006-03-09d2t09.flac
     7:21.63       77940620    ---   --   ---xx   wilco2006-03-09d2t10.flac
    11:10.73      118359740    ---   --   ---xx   wilco2006-03-09d2t11.flac
   107:19.60     1135981688 B                     (totals for 22 files, 0.5659 o
verall compression ratio)
Show Checksums

Comments
Add Comment
Date User Comment