Browse Collections Artists Sources   Search Dates

Add Show    List Management    Help


Grateful Dead 12/06/81
Rosemont Horizon, Rosemont, IL
Comments Add Comment    Source Collectors    Add to Collection    Add to Want List    History
Source # 78646 Other Sources
Entered by Matt Vernon
Checksums ffp , flac-md5
Disc Counts 2 / 3
Media Size
Date Circulated
Date Added
10/03/2006
10/04/2006
Source Summary flac16; AUD Master Cass>DAT>HD-P2>Soundforge 6.0>CD Wave>FLAC Frontend>.flac 
  Archive
Source Information - Download Text | Download Zip
Grateful Dead
December 6, 1981
Rosemont Horizon,
Rosemont, IL

AUD Master Cass>DAT>HD-P2>Soundforge 6.0>CD Wave>FLAC Frontend>.flac

Set I:

d1t01 - New Minglewood Blues >
d1t02 - Sugaree
d1t03 - Mama Tried >
d1t04 - Mexicali Blues
d1t05 - Candyman >
d1t06 - Rooster
d1t07 - Tennessee Jed
d1t08 - Looks Like Rain
d1t09 - Jack A Roe
d1t10 - Beat It On Down The Line
d2t01 - China Cat Sunflower >
d2t02 - I Know You Rider

Set II:
d2t03 - Samson and Deliliah
d2t04 - To Lay Me Down
d2t05 - Estimated Prophet >
d2t06 - Eyes of the World >
d3t01 - Drumz >
d3t02 - Not Fade Away >
d3t03 - Wharf Rat >
d3t04 - Good Lovin'

Encore:
d3t05 - Brokedown Palace


SHNTOOL LEN OUTPUT:

    length     expanded size    cdr  WAVE problems  fmt   ratio  filename
     7:45.28       82091900 B   ---   --   ---xx   flac  0.5688  gd1981-12-06d1t01.flac
    11:45.71      124529036 B   ---   --   ---xx   flac  0.5630  gd1981-12-06d1t02.flac
     2:38.32       27946508 B   ---   --   ---xx   flac  0.5712  gd1981-12-06d1t03.flac
     5:39.24       59856092 B   ---   --   ---xx   flac  0.5660  gd1981-12-06d1t04.flac
     6:23.50       67678844 B   ---   --   ---xx   flac  0.5491  gd1981-12-06d1t05.flac
     8:25.57       89216108 B   ---   --   ---xx   flac  0.5482  gd1981-12-06d1t06.flac
     8:42.67       92238428 B   ---   --   ---xx   flac  0.5487  gd1981-12-06d1t07.flac
     8:36.50       91140044 B   ---   --   ---xx   flac  0.5379  gd1981-12-06d1t08.flac
     5:11.26       54921596 B   ---   --   ---xx   flac  0.5479  gd1981-12-06d1t09.flac
     3:10.00       33516044 B   ---   --   ---xx   flac  0.5570  gd1981-12-06d1t10.flac
     6:20.05       67043804 B   ---   --   ---xx   flac  0.5697  gd1981-12-06d2t01.flac
     7:38.31       80864156 B   ---   --   ---xx   flac  0.5703  gd1981-12-06d2t02.flac
     9:24.64       99640172 B   ---   --   ---xx   flac  0.5663  gd1981-12-06d2t03.flac
     8:46.70       92951084 B   ---   --   ---xx   flac  0.5497  gd1981-12-06d2t04.flac
    10:45.58      113914460 B   ---   --   ---xx   flac  0.5608  gd1981-12-06d2t05.flac
     8:33.13       90523820 B   ---   --   ---xx   flac  0.5699  gd1981-12-06d2t06.flac
    11:22.19      120349532 B   ---   --   ---xx   flac  0.5471  gd1981-12-06d3t01.flac
     8:45.55       92739404 B   ---   --   ---xx   flac  0.5710  gd1981-12-06d3t02.flac
     9:06.58       96450860 B   ---   --   ---xx   flac  0.5572  gd1981-12-06d3t03.flac
     9:01.07       95448908 B   ---   --   ---xx   flac  0.5801  gd1981-12-06d3t04.flac
     5:27.37       57769868 B   ---   --   ---xx   flac  0.5593  gd1981-12-06d3t05.flac
   163:31.72     1730830668 B                            0.5596  (21 files)
Show Checksums
ffp
gd1981-12-06d1t01.flac:63fcb99fac8e40ea1223d264608d4048
gd1981-12-06d1t02.flac:f93dbfbe32a185e49af21c2ff70df8a0
gd1981-12-06d1t03.flac:a6152da84d2977c50bca71bdf635622c
gd1981-12-06d1t04.flac:b85fe2fbab36503cba93bfb57274e010
gd1981-12-06d1t05.flac:ba78cb74638f5459ae27f3119cfbb616
gd1981-12-06d1t06.flac:2839d4947cd1e12f125f6537bbf63b94
gd1981-12-06d1t07.flac:a51d58ef6654e3ca747c563a37c3dda5
gd1981-12-06d1t08.flac:ef8fc01a4fc1c88d79479bf2360610bf
gd1981-12-06d1t09.flac:470804ac43ff1827c50d4d4ae2b91c0a
gd1981-12-06d1t10.flac:9830ad7191b30951621c7277b3690bb3
gd1981-12-06d2t01.flac:0ce714faeb1c3ed6f6b96c0fd0e889d1
gd1981-12-06d2t02.flac:2dad545c9f9e543a3807371f0201ce56
gd1981-12-06d2t03.flac:71a4698235a6c9842ec4058d64bea37e
gd1981-12-06d2t04.flac:89c18a7956614afbf9f1d1972fe62ee9
gd1981-12-06d2t05.flac:553f00dd74044a258771150eb989a24d
gd1981-12-06d2t06.flac:5a283868c46766be4c35ceeffc7ca6ab
gd1981-12-06d3t01.flac:1db94f45939d6f498ae6f8e1a0bf9fe7
gd1981-12-06d3t02.flac:c580ff86d7537f38165608c279daaab3
gd1981-12-06d3t03.flac:901eb377b299b73a6fdecb931f23c548
gd1981-12-06d3t04.flac:191e6eed75a310f97d583d21bba37989
gd1981-12-06d3t05.flac:484ff143a713d9b0d7ed678ed11c752b
flac-md5
3c4a6e7c0b8bacb6bad4c32be8ad7fac *gd1981-12-06d1t01.flac
14815f18c3198dd37c221c29e2e488b2 *gd1981-12-06d1t02.flac
223ea0b072b9d53741a432304b1ca0ea *gd1981-12-06d1t03.flac
ec9e0541639f7c507407ee5273c09c56 *gd1981-12-06d1t04.flac
2fd27c37a0fc16f3e3f88f8e7ade98e3 *gd1981-12-06d1t05.flac
c045af2c8b24ecd827984397395e3c9a *gd1981-12-06d1t06.flac
e00a058f71e494360c0a4a651b3fc7aa *gd1981-12-06d1t07.flac
8b2b00c7487e78cf828fb1d1408bd1ab *gd1981-12-06d1t08.flac
3d87b4c5f5e551bf86601273a0b6e9cd *gd1981-12-06d1t09.flac
ceef0508dc430e7f6e72f598db04059b *gd1981-12-06d1t10.flac
e1ce04f64f5adc5cebbcc540bd9e2b4b *gd1981-12-06d2t01.flac
7bbfde1d83f1dc49c8bade4c19fbf4df *gd1981-12-06d2t02.flac
338bfc6fc2316f87a8c68ac9a7655c5f *gd1981-12-06d2t03.flac
7eb6051c48f514464e8f3f3c3135e175 *gd1981-12-06d2t04.flac
b01911679ee50748bd4f8e98a65dc627 *gd1981-12-06d2t05.flac
49863cc9a467dfdbb7ba410fcd9d7959 *gd1981-12-06d2t06.flac
a0b9ccd1617192992008170653d2f2e5 *gd1981-12-06d3t01.flac
4dd4a894d0082caac34396af569fc1ff *gd1981-12-06d3t02.flac
7a51468c9a9283db94478336693f5bac *gd1981-12-06d3t03.flac
6847e3552525705da9eee92118a78586 *gd1981-12-06d3t04.flac
815f2a60ad7db34d441245cfa4f8fc37 *gd1981-12-06d3t05.flac

Comments
Add Comment
Other Sources (comments)
Unknown Aud>DAT>CDR; via... (0) flac16;Recording by... (2) flac16; Recording... (0) flac16; Recorded by... (0) flac16; Recording... (1) flac24; AUD: First... (0) flac16; AUD: First... (0)
Date User Comment