Browse Collections Artists Sources   Search Dates

Add Show    List Management    Help


The Slip 09/05/98
High Sierra Music Festival, Main Stage, Bear Valley, CA
Comments Add Comment    Source Collectors    Add to Collection    Add to Want List    History
Source # 78838 Other Sources
Entered by
Checksums flac.ffp
Disc Counts 1 / 1
Media Size
Date Circulated
Date Added
04/04/06
10/06/2006
Source Summary Source: FOB AKG 414's>sound devices>DAT
Transfer: DAT>CDR>EAC>FLAC by EEE 
Source Information - Download Text | Download Zip
The Slip  - 9/5/98
High Sierra Music Festival - Bear Valley, CA
Main Stage
Source: FOB AKG 414's>sound devices>DAT
Transfer: DAT>CDR>EAC>FLAC by EEE

1. The Cintra
2. Munf
3. Cumulus
4. Rhythm-a-ning
5. From the Gecko->
6. Zion
7. Cool*
*with Andy Butler on keyboard

SHNTOOL OUTPUT:

    length     expanded size   cdr  WAVE problems filename
    12:16.25      129889244    ---   --   -----   theslip98-09-05d1t01.wav
    10:16.68      108822380    ---   --   -----   theslip98-09-05d1t02.wav
    13:50.36      146496716    ---   --   -----   theslip98-09-05d1t03.wav
     8:23.55       88858604    ---   --   -----   theslip98-09-05d1t04.wav
    17:45.24      187922492    ---   --   -----   theslip98-09-05d1t05.wav
    11:44.05      124197404    ---   --   -----   theslip98-09-05d1t06.wav
    74:16.63      786186840 B                     (totals for 6 files, 1.0000 overall compression ratio)

EEE NOTES: Whitney Padget recorded this show using Rob Boyle's rig. I
patched out of him. There was a problem with the line out of Whit's
DAT and I didn't get the last tune. Whit burned me an audio CD from
his master shortly after HSMF. The currently circulating source is
unknown with EAC: http://db.etree.org/shninfo_detail.php?shnid=3406
I have the SBD of this set too, but I like the AUD better, and I
figured at least this is a known source. Andy Butler is an old school
New Orleans piano player. It started to rain during Cumulus. Listen for
EB saying what we were all thinking after Cumulus, and me calling EB out.
Taper humor.
Show Checksums
flac.ffp
theslip98-09-05aud04.flac:34952ad99c8558060e48b38a2226f34d
theslip98-09-05aud05.flac:1bcc9e615c19301bd79edd58ba1105e5
theslip98-09-05aud06.flac:a08777de9fa23ab6416262262497f31e
theslip98-09-05aud01.flac:1c18e1ebddfd38587a021bfd98a59e79
theslip98-09-05aud02.flac:cdb747980f410177a356685ff740ee5b
theslip98-09-05aud03.flac:dda16cdebf95768e21d445cd66bf6338
theslip98-09-05d1t02.flac:cdb747980f410177a356685ff740ee5b
theslip98-09-05d1t01.flac:1c18e1ebddfd38587a021bfd98a59e79
theslip98-09-05d1t06.flac:a08777de9fa23ab6416262262497f31e
theslip98-09-05d1t05.flac:1bcc9e615c19301bd79edd58ba1105e5
theslip98-09-05d1t04.flac:34952ad99c8558060e48b38a2226f34d
theslip98-09-05d1t03.flac:dda16cdebf95768e21d445cd66bf6338

Comments
Add Comment
Other Sources (comments)
unknown (0)
Date User Comment