Browse Collections Artists Sources   Search Dates

Add Show    List Management    Help


Grateful Dead 08/04/89
Cal Expo, Sacramento, CA
Comments Add Comment    Source Collectors    Add to Collection    Add to Want List    History
Source # 78877 Other Sources
Entered by Matt Vernon
Checksums ffp , flac-md5
Disc Counts 2 / 3
Media Size
Date Circulated
Date Added
10/07/2006
10/08/2006
Source Summary flac16; AUD Source: Nakamichi CM-300's with CP-1 (cardioid) capsules > Sony TC-D5M > Maxell XL-IIS tape, with Dolby on. FOB recording, mics on stand, aprx 6-feet high. Transfer: MAC > Nakamichi Dragon (Dolby on) > Tascam CDRW-5000 > CDR > EAC > Soundforge > CD-Wave > TLH v.1.0.0.72 (for SBE-OK, FLAC compression, and checksums) > FLAC 
  Archive
Source Information - Download Text | Download Zip
GRATEFUL DEAD
Cal Expo Amphitheater
Sacramento CA
08-04-1989

Disc One (75:33)

01 crowd & tuning
02 Bertha >
03 Greatest Story Ever Told
04 Althea
05 Mama Tried >
06 Mexicali Blues
07 Good Time Blues
08 Built to Last
09 Queen Jane Approximately
10 Jackaroe
11 Cassidy
12 Deal
-- set break --

Disc Two (45:03)

01 crowd & tuning
02 Truckin' >
03 Wang Dang Doodle >
04 Crazy Fingers >
05 Cumberland Blues >
06 Eyes of the World >
07 Drums >
08 Space// (tape flip)

Disc Three (42:37)

01 Space >
02 The Wheel >
03 I Need a Miracle >
04 Stella Blue >
05 Sugar Magnolia
-- encore --
06 It's All Over Now, Baby Blue

AUD Source: Nakamichi CM-300's with CP-1 (cardioid) capsules > Sony TC-D5M > Maxell XL-IIS tape, with Dolby on. FOB recording, mics on stand, aprx 6-feet high.

Transfer: MAC > Nakamichi Dragon (Dolby on) > Tascam CDRW-5000 > CDR > EAC > Soundforge > CD-Wave > TLH v.1.0.0.72 (for SBE-OK, FLAC compression, and checksums) > FLAC, October 2006.

Notes: Soundforge was used to make fades. The break between Disc
Two and Disc Three is where the MAC tape was flipped. There's
some chatter during Drums and Space, and a few spots where the
mic stand is bumped; otherwise, it's an excellent FOB. Taped and
transfered thru CDR by Jon Pasternak. EAC thru FLAC by Andrew F.

***ENJOY***

SHNTOOL

    length     expanded size   cdr  WAVE problems filename
     1:14.33       13131260    ---   --   ---xx   gd1989-08-04d1t01.flac
     6:51.45       72606284    ---   --   ---xx   gd1989-08-04d1t02.flac
     4:30.27       47691548    ---   --   ---xx   gd1989-08-04d1t03.flac
    10:02.41      106289276    ---   --   ---xx   gd1989-08-04d1t04.flac
     2:38.73       28042940    ---   --   ---xx   gd1989-08-04d1t05.flac
     6:35.39       69769772    ---   --   ---xx   gd1989-08-04d1t06.flac
     7:17.62       77232668    ---   --   ---xx   gd1989-08-04d1t07.flac
     5:02.01       53275196    ---   --   ---xx   gd1989-08-04d1t08.flac
     9:45.33      103271660    ---   --   ---xx   gd1989-08-04d1t09.flac
     5:15.41       55662476    ---   --   ---xx   gd1989-08-04d1t10.flac
     7:45.72       82195388    ---   --   ---xx   gd1989-08-04d1t11.flac
     8:33.40       90587324    ---   --   ---xx   gd1989-08-04d1t12.flac
     1:19.10       13959164    ---   --   ---xx   gd1989-08-04d2t01.flac
     7:20.02       77620748    ---   --   ---xx   gd1989-08-04d2t02.flac
     4:39.23       49269740    ---   --   ---xx   gd1989-08-04d2t03.flac
     9:25.20       99713084    ---   --   ---xx   gd1989-08-04d2t04.flac
     5:33.68       58901180    ---   --   ---xx   gd1989-08-04d2t05.flac
     9:36.59      101745212    ---   --   ---xx   gd1989-08-04d2t06.flac
     5:42.39       60420572    ---   --   ---xx   gd1989-08-04d2t07.flac
     1:26.59       15309212    ---   --   ---xx   gd1989-08-04d2t08.flac
     9:22.11       99162716    ---   --   ---xx   gd1989-08-04d3t01.flac
     4:12.22       44504588    ---   --   ---xx   gd1989-08-04d3t02.flac
     4:11.43       44377580    ---   --   ---xx   gd1989-08-04d3t03.flac
     8:14.18       87183980    ---   --   ---xx   gd1989-08-04d3t04.flac
     9:45.70      103358684    ---   --   ---xx   gd1989-08-04d3t05.flac
     6:51.44       72603932    ---   --   ---xx   gd1989-08-04d3t06.flac
   163:15.20     1727886184 B                     (totals for 26 files, 0.5685 overall compression ratio)

There were no sector boundary errors.
Show Checksums
ffp
gd1989-08-04d1t01.flac:40620b6315f1d403d9a850e29d07138f
gd1989-08-04d1t02.flac:d6a34a8c0b0f92a8db0640dd4cece318
gd1989-08-04d1t03.flac:7187accb824726fb50150b330a2fe2e2
gd1989-08-04d1t04.flac:94d18f4f5ebe47ddd67c46da7bd18013
gd1989-08-04d1t05.flac:696e4a736bd3050a46709374bcb009d3
gd1989-08-04d1t06.flac:d134f8e1dcfb4fc452333c0d20511f68
gd1989-08-04d1t07.flac:b1471d140ab758bbee2c06559c3d0b64
gd1989-08-04d1t08.flac:17236c8e66859d726079ee808561a8d2
gd1989-08-04d1t09.flac:44b94397b445f64efdb5646b3b0bd018
gd1989-08-04d1t10.flac:a834f398a0fe046b002b88b90f0e3293
gd1989-08-04d1t11.flac:ffb40a469b1df977d79315cca2841cfc
gd1989-08-04d1t12.flac:d26381d323f2f2c75fff9e5008bf7e7a
gd1989-08-04d2t01.flac:7300230e41f3145458018d9999a55ed6
gd1989-08-04d2t02.flac:9384d92a8d2f1a6f63110c7f27cb65bb
gd1989-08-04d2t03.flac:2c802671edcfb91f6ba254bf8be5f3e2
gd1989-08-04d2t04.flac:d1f50ed679ae1e5238da19dc0e653297
gd1989-08-04d2t05.flac:1dea0b8ff3eeac4a1960109f22d76c15
gd1989-08-04d2t06.flac:0680499ea451e89b722ff816cd8970bf
gd1989-08-04d2t07.flac:f172ba26ef5a76518dcfe85ea67f3e9d
gd1989-08-04d2t08.flac:8c7ae1a087f54fd5c6420a80c921cc44
gd1989-08-04d3t01.flac:d9a399489770ed7325c80d1a5211021e
gd1989-08-04d3t02.flac:77da68fc3b2e74421e94bb7cfab47a56
gd1989-08-04d3t03.flac:da3a3b9f40dec0d6468565f47663b8d5
gd1989-08-04d3t04.flac:3f7ff59bf7bd5349eb31baad1edcbf8f
gd1989-08-04d3t05.flac:30ea992f29d3d9dd6cf23b01390182b1
gd1989-08-04d3t06.flac:ca2c05972d6a05fa4a103fdf8c905467
flac-md5
be5e5c4059ca37bf6b03d47cd3524dea *gd1989-08-04d1t01.flac
94aaf0dcadfe852148c142794ecded8e *gd1989-08-04d1t02.flac
0572d39b5677d95b5727e10e02dfa3d6 *gd1989-08-04d1t03.flac
5cf999b899718f3f9b5918f76b5871dd *gd1989-08-04d1t04.flac
3200ddceb0a2ad21cbef617738c2ca35 *gd1989-08-04d1t05.flac
37e5d48b7be60467e2dc3f4ef3b9d7cd *gd1989-08-04d1t06.flac
456f59ebbe24565e48d1add9d19fbf15 *gd1989-08-04d1t07.flac
e880725fb76ac796fe576ce29e6dfdc7 *gd1989-08-04d1t08.flac
2261d132b61779812f7dbc28b1d063a2 *gd1989-08-04d1t09.flac
83b01a1cb11649d5cff5a74522d182d4 *gd1989-08-04d1t10.flac
bf5807fd357fb87b58cacbea399d7628 *gd1989-08-04d1t11.flac
5a4f7bdafd29b9ceb3c3de0e5ebcd983 *gd1989-08-04d1t12.flac
41b9219f6095fb1758d07f6a097285a8 *gd1989-08-04d2t01.flac
a7a717a795e7de18037d5d4c3a369702 *gd1989-08-04d2t02.flac
bb94feea448e088f294d6f09118f98fe *gd1989-08-04d2t03.flac
8b11128280387a742c3777b9b62bd59b *gd1989-08-04d2t04.flac
f37a2a675dfeefb7d1e5f66f60c3bb14 *gd1989-08-04d2t05.flac
9a9fee5bb3884f75a4976deee60f3524 *gd1989-08-04d2t06.flac
319d9ff21589e5cb21bb725f8b6ddaa1 *gd1989-08-04d2t07.flac
e07fedeb96693a207b9d1c1235acd0ce *gd1989-08-04d2t08.flac
df6409ae36848306b0bec26b55ea1ff2 *gd1989-08-04d3t01.flac
381b42e587e21e13e1dba6a9db44482f *gd1989-08-04d3t02.flac
19991b5fc013d35673a6d53483f36a35 *gd1989-08-04d3t03.flac
de228fa8e6b14512cb0e34d2eb9118d0 *gd1989-08-04d3t04.flac
ad4d2357b4e24ce753f9a1040704e618 *gd1989-08-04d3t05.flac
bff5a021585a5539e9389a56c3a7485a *gd1989-08-04d3t06.flac

Comments
Add Comment
Other Sources (comments)
SBD > MC > DAT > CDR;... (0) flac16; Recording... (0) flac16; Source:... (0) flac16; Schoeps CMC... (0)
Date User Comment