Browse Collections Artists Sources   Search Dates

Add Show    List Management    Help


Grateful Dead 11/14/73
San Diego Sports Arena, San Diego, CA
Comments Add Comment    Source Collectors    Add to Collection    Add to Want List    History
Source # 79049 Other Sources
Entered by Matt Vernon
Checksums ffp , flac-md5
Disc Counts 2 / 4
Media Size
Date Circulated
Date Added
10/15/2006
10/15/2006
Source Summary flac16; Recording Info: SBD -> Master Reel -> Dat (44.1k) Transfer Info: Dat (Sony R500) -> Samplitude Professional v7.02 -> FLAC 
  Archive
Source Information - Download Text | Download Zip
Grateful Dead - November 14, 1973
San Diego Sports Arena - San Diego, CA

Recording Info:
SBD -> Master Reel -> Dat (44.1k)

Transfer Info:
Dat (Sony R500) -> Samplitude Professional v7.02 -> FLAC
(4 Discs Audio / 2 Discs FLAC)

All Transfers and Mastering By Charlie Miller
[email protected]
October 13, 2006

Notes:
-- Each set is seamless

Set 1:
d1t01 - Big Railroad Blues
d1t02 - Jack Straw
d1t03 - Sugaree
d1t04 - Mexicali Blues
d1t05 - Here Comes Sunshine
d1t06 - Black Throated Wind
d1t07 - Cumberland Blues
d1t08 - Row Jimmy
d1t09 - The Race Is On
d1t10 - Brown Eyed Women
d1t11 - Beat It On Down The Line
d2t01 - Tennessee Jed
d2t02 - El Paso
d2t03 - China Cat Sunflower ->
d2t04 - I Know You Rider
d2t05 - Around And Around

Set 2:
d3t01 - Truckin' ->
d3t02 - The Other One ->
d3t03 - Big River ->
d3t04 - The Other One ->
d3t05 - Eyes Of The World ->
d3t06 - The Other One ->
d3t07 - Wharf Rat
d4t01 - Me And My Uncle
d4t02 - Goin' Down The Road Feeling Bad ->
d4t03 - One More Saturday Night


SHNTOOL OUTPUT:
    length     expanded size   cdr  WAVE problems filename
     4:13.17       44669228    ---   --   -----   gd73-11-14d1t01.wav
     4:55.08       52056860    ---   --   -----   gd73-11-14d1t02.wav
     7:41.03       81327500    ---   --   -----   gd73-11-14d1t03.wav
     3:54.59       41416412    ---   --   -----   gd73-11-14d1t04.wav
    13:16.33      140492060    ---   --   -----   gd73-11-14d1t05.wav
     6:58.23       73789340    ---   --   -----   gd73-11-14d1t06.wav
     6:36.03       69861500    ---   --   -----   gd73-11-14d1t07.wav
     8:52.30       93915404    ---   --   -----   gd73-11-14d1t08.wav
     3:24.09       36006812    ---   --   -----   gd73-11-14d1t09.wav
     5:15.05       55577804    ---   --   -----   gd73-11-14d1t10.wav
     3:23.59       35948012    ---   --   -----   gd73-11-14d1t11.wav
     8:11.30       86683004    ---   --   -----   gd73-11-14d2t01.wav
     4:23.62       46539068    ---   --   -----   gd73-11-14d2t02.wav
     8:56.08       94569260    ---   --   -----   gd73-11-14d2t03.wav
     5:28.11       57885116    ---   --   -----   gd73-11-14d2t04.wav
     5:09.25       54566444    ---   --   -----   gd73-11-14d2t05.wav
    16:18.03      172526300    ---   --   -----   gd73-11-14d3t01.wav
    15:15.29      161474252    ---   --   -----   gd73-11-14d3t02.wav
     4:57.08       52409660    ---   --   -----   gd73-11-14d3t03.wav
     6:08.45       65021084    ---   --   -----   gd73-11-14d3t04.wav
    12:31.37      132563468    ---   --   -----   gd73-11-14d3t05.wav
     4:20.03       45871100    ---   --   -----   gd73-11-14d3t06.wav
    10:35.67      112171628    ---   --   -----   gd73-11-14d3t07.wav
     3:33.19       37617932    ---   --   -----   gd73-11-14d4t01.wav
     7:31.65       79709324    ---   --   -----   gd73-11-14d4t02.wav
     5:07.59       54293612    ---   --   -----   gd73-11-14d4t03.wav
   186:58.45     1978962184 B                     (totals for 26 files)
Show Checksums
ffp
gd73-11-14d1t01.flac:00d03277e546d26a2f623ec67efa1a44
gd73-11-14d1t02.flac:7a77982bcb2248eefeef8491da52a6fa
gd73-11-14d1t03.flac:d07537bd9f1b49b2675e8fe53552dedb
gd73-11-14d1t04.flac:9c503c5ce255ebaa47db4d8313c95fc6
gd73-11-14d1t05.flac:42e0e8a0d1043bd24ea5fba11af70af3
gd73-11-14d1t06.flac:d1e4d69049c39431f939cacb24a7ec31
gd73-11-14d1t07.flac:f8a809ff383b44256867afb509a49dab
gd73-11-14d1t08.flac:6c5ae9f6b3e048c3f825a92bd5b1873a
gd73-11-14d1t09.flac:bb8caf4fea1055fc9ff97afb8c8257a0
gd73-11-14d1t10.flac:7d309ecc46ce6c842596f169d62c0395
gd73-11-14d1t11.flac:d380ee8ee50bdf81baec17e342d2f7ff
gd73-11-14d2t01.flac:7b0ab662c1dcc8385930448ee16f540c
gd73-11-14d2t02.flac:6407e8ffe8331c1953f8329fe782e888
gd73-11-14d2t03.flac:4d57d96fb95dc3b33a5abde3dd5d9efe
gd73-11-14d2t04.flac:11ce6e45e601a1493f02ae8786649e2a
gd73-11-14d2t05.flac:55bd7e540c80c179d3856305c1ffff8d
gd73-11-14d3t01.flac:a1136b0a16b2e1ec6362e289761ff29d
gd73-11-14d3t02.flac:418077a340cfa1f8ccea6064c227c697
gd73-11-14d3t03.flac:7316f2ed009d9f9065335828be9eeee9
gd73-11-14d3t04.flac:59adabff2739bb49dddd21fcec927d72
gd73-11-14d3t05.flac:7f03b67495a1ab61ed98d76577972f3f
gd73-11-14d3t06.flac:184dec33b37089c76049469f103dc6bf
gd73-11-14d3t07.flac:3d4996616d9fe43f9d4314b4bf2cb002
gd73-11-14d4t01.flac:587afe14415df389c57b11d9f112db88
gd73-11-14d4t02.flac:e0c34428dca34dd95b4b3bd940c3c708
gd73-11-14d4t03.flac:720f3b5d9a055f54912a5932c20bb466
flac-md5
421e68616dc0bed9ab0baa1f751f8ae7 *gd73-11-14d1t01.flac
8f235bea6c49c241fb1c7b2e75805a8d *gd73-11-14d1t02.flac
6166578203f6bc5bc60c5a5c717a677f *gd73-11-14d1t03.flac
4238d0b32b2b6111ad98e00fb304e47c *gd73-11-14d1t04.flac
c87492c5364fee9d2d80f00d02559c09 *gd73-11-14d1t05.flac
73cff1d2c9e2ab2da628d4b35216bd4e *gd73-11-14d1t06.flac
609a7f6b39a3d31f80029c75d4b5bca6 *gd73-11-14d1t07.flac
21d6adfcfcc9ffd5ec2b579fb311e55c *gd73-11-14d1t08.flac
d583eab7b2126bb67e0d463ff2842ed4 *gd73-11-14d1t09.flac
0590681f201e743270fcf46cf2048395 *gd73-11-14d1t10.flac
bf29773d0383c779fcf5a50bc3e45442 *gd73-11-14d1t11.flac
90caaa5fb55c4bc457e23586877131b5 *gd73-11-14d2t01.flac
e426a4d1cbbb79807c124ac9713f0e9e *gd73-11-14d2t02.flac
9e99cdb96214c083ebde5ab53b7b1a51 *gd73-11-14d2t03.flac
3920e04ecc40c41deb01e1216ee063f7 *gd73-11-14d2t04.flac
e86eda893ca0014f802e25e1e22f988c *gd73-11-14d2t05.flac
d192df9a55982eb5a6c7c737476eff73 *gd73-11-14d3t01.flac
8e9a934af50df10c8f35ca61cc782ceb *gd73-11-14d3t02.flac
956cf4a9a334315d9c958ce6e32df77b *gd73-11-14d3t03.flac
e0724343c523d69d1fd4d4a2f0a1f487 *gd73-11-14d3t04.flac
f4a4309faff7f0c1aae65410b241254c *gd73-11-14d3t05.flac
51a061a73a5575c8211c1bdc79ecbba2 *gd73-11-14d3t06.flac
a7cc8ff92e500cee08bcc0cc1b2b476f *gd73-11-14d3t07.flac
a9e39723b1b6eaae15438fba82474d59 *gd73-11-14d4t01.flac
9cd600f35debaf59ddb3f6f33e8e2665 *gd73-11-14d4t02.flac
4661e003127c730f6733ca5663aabe8b *gd73-11-14d4t03.flac

Comments
Add Comment
Other Sources (comments)
Updated lineage: SBD > MR >... (2) edit of (2) Lineage: 7" Master Reel >... (0)
Date User Comment