Browse Collections Artists Sources   Search Dates

Add Show    List Management    Help


Grateful Dead 03/18/94
Rosemont Horizon, Rosemont, IL
Comments Add Comment    Source Collectors    Add to Collection    Add to Want List    History
Source # 79117 Other Sources
Entered by Matt Vernon
Checksums ffp , flac-md5
Disc Counts 2 / 2
Media Size
Date Circulated
Date Added
10/16/2006
10/16/2006
Source Summary flac16; Recording Info: SBD -> Dat (44.1k) Transfer Info: Dat (Sony R500) -> Samplitude Professional v7.02 -> FLAC 
  Archive
Source Information - Download Text | Download Zip
Grateful Dead - March 18, 1994
Rosemont Horizon - Rosemont, IL

Recording Info:
SBD -> Dat (44.1k)

Transfer Info:
Dat (Sony R500) -> Samplitude Professional v7.02 -> FLAC
(2 Discs Audio / 2 Discs FLAC)

All Transfers and Mastering By Charlie Miller
[email protected]
October 14, 2006

Notes:
-- Disc change is seamless
-- Encore patched from AUD pulled from etree

Set 1:
d1t01 - Tuning
d1t02 - Feel Like A Stranger
d1t03 - Deal
d1t04 - El Paso
d1t05 - Brown Eyed Women
d1t06 - When I Paint My Masterpiece
d1t07 - Ramble On Rose
d1t08 - The Music Never Stopped

Set 2:
d1t09 - Tuning
d1t10 - Here Comes Sunshine
d1t11 - Saint Of Circumstance
d1t12 - Ship Of Fools
d2t01 - Corrina ->
d2t02 - Drums ->
d2t03 - Space ->
d2t04 - The Other One ->
d2t05 - Wharf Rat ->
d2t06 - Around And Around

Encore:
d2t07 - U.S. Blues


SHNTOOL OUTPUT:
    length     expanded size   cdr  WAVE problems filename
     3:13.67       34202828    ---   --   -----   gd94-03-18d1t01.wav
     9:12.69       97535132    ---   --   -----   gd94-03-18d1t02.wav
    10:26.47      110536988    ---   --   -----   gd94-03-18d1t03.wav
     5:22.64       56951372    ---   --   -----   gd94-03-18d1t04.wav
     4:48.39       50894972    ---   --   -----   gd94-03-18d1t05.wav
     6:06.02       64567148    ---   --   -----   gd94-03-18d1t06.wav
     8:05.64       85704572    ---   --   -----   gd94-03-18d1t07.wav
     7:56.45       84072284    ---   --   -----   gd94-03-18d1t08.wav
     1:56.02       20467148    ---   --   -----   gd94-03-18d1t09.wav
     6:17.49       66618092    ---   --   -----   gd94-03-18d1t10.wav
     7:14.54       76684652    ---   --   -----   gd94-03-18d1t11.wav
     7:11.45       76134284    ---   --   -----   gd94-03-18d1t12.wav
    11:41.20      123703484    ---   --   -----   gd94-03-18d2t01.wav
    11:10.45      118293884    ---   --   -----   gd94-03-18d2t02.wav
    14:10.10      149963564    ---   --   -----   gd94-03-18d2t03.wav
    10:19.12      109219868    ---   --   -----   gd94-03-18d2t04.wav
     9:58.32      105562508    ---   --   -----   gd94-03-18d2t05.wav
     7:14.50       76675244    ---   --   -----   gd94-03-18d2t06.wav
     5:16.46       55850636    ---   --   -----   gd94-03-18d2t07.wav
   147:44.12     1563638660 B                     (totals for 19 files)
Show Checksums
ffp
gd94-03-18d1t01.flac:fb7d76f3451f87e33f2675bd64d8e98d
gd94-03-18d1t02.flac:90f5f6e08e478ed937fbdf7da3af3d1b
gd94-03-18d1t03.flac:ac39df03b6cd7425b9efb0979a72fa1e
gd94-03-18d1t04.flac:b12ed6f863b6b5f17fb36c2a53a6069d
gd94-03-18d1t05.flac:7fdf37fb320420c084482997e30bae96
gd94-03-18d1t06.flac:52e91975a2debc179c88770171340a38
gd94-03-18d1t07.flac:d1b4caa1330a8f7d82d1425c83a01713
gd94-03-18d1t08.flac:401bf28da69a179d7b4896ccbf98ca3b
gd94-03-18d1t09.flac:e1bbceb66d2206eec7f977ce0bc3bd8a
gd94-03-18d1t10.flac:4d2af3b8fc2148fc5f7c9b843f6a061e
gd94-03-18d1t11.flac:2391784646a0ecbd78e15ac7cf89483c
gd94-03-18d1t12.flac:de89b21c2754c4ad3133291a5b0e5bf4
gd94-03-18d2t01.flac:7387dfd0dd17fd52ed9c418ba1badc3f
gd94-03-18d2t02.flac:6374c10c569932f72c1db0b710bcc8c1
gd94-03-18d2t03.flac:0b8b3731cff5b280279f634c3e3fd8b4
gd94-03-18d2t04.flac:1482ea7921620ae5a987ed4fd573eb0a
gd94-03-18d2t05.flac:76c620ca5bfd2734234596732bbc36e2
gd94-03-18d2t06.flac:e204d64d6979f7506e209c845cc30308
gd94-03-18d2t07.flac:a92d54441213c2131d3a634e6743f63c
flac-md5
8689b46047b0af53a216ca24d33f12b9 *gd94-03-18d1t01.flac
358bec62264cb0cf6023b7140ebe52fa *gd94-03-18d1t02.flac
5dad8df6e0500cd3671794e267e0ba99 *gd94-03-18d1t03.flac
4a4dcbdd000febc6154b2961360e1ba9 *gd94-03-18d1t04.flac
fbb53742d07746bd38a9cb2a85a6e32d *gd94-03-18d1t05.flac
6494705943309fb8184f1fe4eeee326b *gd94-03-18d1t06.flac
dc62800258848caf9d9181edf5e56d25 *gd94-03-18d1t07.flac
45686f4db7a700f9fd6ccf522c7bee3d *gd94-03-18d1t08.flac
1e48e4c170a4ac9f70e1f564326bd3fc *gd94-03-18d1t09.flac
b7ae9db24f180b20deb40992d42f0f0c *gd94-03-18d1t10.flac
f5f5dbb075472875954b72ffeab24049 *gd94-03-18d1t11.flac
3c1d6504c6e12559d7b63d1c04e312fb *gd94-03-18d1t12.flac
fb0cdd22311fd97b7243a6abfcc2a4f6 *gd94-03-18d2t01.flac
fc4222a8004475634ce6d6009a9b1d62 *gd94-03-18d2t02.flac
1a5dc9c71c321524fd0dcfd444e3b1a2 *gd94-03-18d2t03.flac
65d79ce9c9f96844b618067bdf76fba1 *gd94-03-18d2t04.flac
ab506f328d94a095890aa08138d49a38 *gd94-03-18d2t05.flac
d03f2f618c3d2915bb655660f668da02 *gd94-03-18d2t06.flac
61f61229c8605f40aef08d2a8a4883eb *gd94-03-18d2t07.flac

Comments
Add Comment
Other Sources (comments)
Source: Audience... (0) flac16/44 Source... (0)
Date User Comment