Browse Collections Artists Sources   Search Dates

Add Show    List Management    Help


Drive-By Truckers 02/25/06
Cannery Ballroom, Nashville, TN
Comments Add Comment    Source Collectors    Add to Collection    Add to Want List    History
Source # 79164 Other Sources
Entered by Kyle pike
Checksums ffp
Disc Counts 0 / 0
Media Size
Date Circulated
Date Added
04/18/06
10/16/2006
Source Summary [16 Bit] Schoeps CMC4Vs > SD 722 (Martin Medley) 
Source Information - Download Text | Download Zip
Drive-By Truckers
2006-02-25
Cannery Ballroom
Nashville, TN.


*** 16bit Source ***


Source: Schoeps MK4Vs (ORTF/DFC) > SD 722 @ 24/96
Transfer: 722 > HD > Wavelab 5.01b (Fades/Dither (MBit+)/Re-Sample) > CDWave > FLAC Frontend (6)
Taped, Transferred, and Seeded by Martin Medley.



Disc 1:

01. Feb. 14
02. Women Without Whiskey
03. The Day John Henry Died
04. Wednesday
05. Cottonseed
06. Puttin' People On The Moon
07. Never Gonna Change
08. Ronnie And Neil
09. Where The Devil Don\'t Stay
10. Dead Drunk And Naked
11. Guitar Man Upstairs
12. Tails Facing Up


Disc 2:

01. Goddam Lonely Love
02. Aftermath USA
03. Sinkhole
04. Daddy's Cup
05. My Sweet Annette
06. Decoration Day
07. Marry Me
08. 18 Wheels Of Love
09. Lookout Mountain
10. Crowd


Encore:

01. Holland, 1945 (Jason Solo) *
02. A World Of Hurt
03. Let There Be Rock
04. Carl Perkins Cadillac
05. Easy On Yourself
06. Buttholeville
07. People Who Died


* Neutral Milk Hotel song

Entire show with John Neff on pedal steel.



shntool info:

    length     expanded size   cdr  WAVE problems filename
     4:52.30       51579404    ---   --   ---xx   dbt2006-02-25d1t01.flac
     4:41.38       49657820    ---   --   ---xx   dbt2006-02-25d1t02.flac
     4:25.47       46856588    ---   --   ---xx   dbt2006-02-25d1t03.flac
     4:50.09       51177212    ---   --   ---xx   dbt2006-02-25d1t04.flac
     7:32.31       79805756    ---   --   ---xx   dbt2006-02-25d1t05.flac
     5:34.15       58952924    ---   --   ---xx   dbt2006-02-25d1t06.flac
     5:44.20       60728684    ---   --   ---xx   dbt2006-02-25d1t07.flac
     5:40.58       60112460    ---   --   ---xx   dbt2006-02-25d1t08.flac
     5:41.56       60284156    ---   --   ---xx   dbt2006-02-25d1t09.flac
     5:30.58       58348460    ---   --   ---xx   dbt2006-02-25d1t10.flac
     4:07.20       43617884    ---   --   ---xx   dbt2006-02-25d1t11.flac
     6:45.51       71561996    ---   --   ---xx   dbt2006-02-25d1t12.flac
     6:19.64       67006172    ---   --   ---xx   dbt2006-02-25d2t01.flac
     4:56.48       52327340    ---   --   ---xx   dbt2006-02-25d2t02.flac
     4:02.41       42785276    ---   --   ---xx   dbt2006-02-25d2t03.flac
     6:06.09       64583612    ---   --   ---xx   dbt2006-02-25d2t04.flac
     4:40.36       49476716    ---   --   ---xx   dbt2006-02-25d2t05.flac
     7:35.28       80327900    ---   --   ---xx   dbt2006-02-25d2t06.flac
     6:00.30       63574604    ---   --   ---xx   dbt2006-02-25d2t07.flac
     8:52.05       93856604    ---   --   ---xx   dbt2006-02-25d2t08.flac
     5:09.47       54618188    ---   --   ---xx   dbt2006-02-25d2t09.flac
     2:57.24       31279292    ---   --   ---xx   dbt2006-02-25d2t10.flac
     7:20.29       77684252    ---   --   ---xx   dbt2006-02-25d3t01.flac
     5:46.43       61135580    ---   --   ---xx   dbt2006-02-25d3t02.flac
     6:04.36       64294316    ---   --   ---xx   dbt2006-02-25d3t03.flac
     5:57.22       63026588    ---   --   ---xx   dbt2006-02-25d3t04.flac
     3:54.15       41312924    ---   --   ---xx   dbt2006-02-25d3t05.flac
     8:02.36       85109516    ---   --   ---xx   dbt2006-02-25d3t06.flac
     6:51.10       72523964    ---   --   ---xx   dbt2006-02-25d3t07.flac
   166:03.56     1757606188 B                     (totals for 29 files, 0.6137 overall compression ratio)
Show Checksums
ffp
dbt2006-02-25d1t01.flac:d5a2c409ebb2777eeabab67c782ff0c8
dbt2006-02-25d1t02.flac:0b891aa341a839dc3fbbabd1c1760803
dbt2006-02-25d1t03.flac:7be93298320beb9dcf6865221ab8b5d6
dbt2006-02-25d1t04.flac:1f920466afd41672d3dbdc44c873c48f
dbt2006-02-25d1t05.flac:825acec4605a00e5e41771ce338009d5
dbt2006-02-25d1t06.flac:3597a9f7bcdd96e6fb9b9e10801b1555
dbt2006-02-25d1t07.flac:881fad3f661c9887712298fe827f5e3e
dbt2006-02-25d1t08.flac:09ff96be9afc71b7c017920445c7df36
dbt2006-02-25d1t09.flac:42bb6c070e7e9b23aa4af9cb8e959441
dbt2006-02-25d1t10.flac:bb4a3dc423901fe931c136a90073621c
dbt2006-02-25d1t11.flac:c9f868ff7f4a2b2e3fc4d5ec25404680
dbt2006-02-25d1t12.flac:8870348eac509b232929cf96cb3d6690
dbt2006-02-25d2t01.flac:7606c6896ee6a032b42bec0cab225ec6
dbt2006-02-25d2t02.flac:5a18f4a8ab52500a1071601fafc74f91
dbt2006-02-25d2t03.flac:bc68f6413cffb60b4155891b28607250
dbt2006-02-25d2t04.flac:3e52b160064d811296ea2bcb420c563c
dbt2006-02-25d2t05.flac:2630c1062e62c6195b41df82f288b2df
dbt2006-02-25d2t06.flac:85b6cf2cc5bab64cfd442ded1a6e8335
dbt2006-02-25d2t07.flac:dcadfdd9acb7544dbb1a0aba172cd56c
dbt2006-02-25d2t08.flac:c78bbe74e7d6ca4b625b13a58b070d36
dbt2006-02-25d2t09.flac:13851ad4fdcf70b4fc50da56c4a2fd1f
dbt2006-02-25d2t10.flac:7e9da2d5ca5de3e1d57b7c7eedb3133a
dbt2006-02-25d3t01.flac:bfb43a66de93cc00af4875d3672e4720
dbt2006-02-25d3t02.flac:a29188062130ec2a18e9a0f457f673e9
dbt2006-02-25d3t03.flac:db973b68bc1c7c31b3f8152b0f841209
dbt2006-02-25d3t04.flac:3199f2510f9e7dda5a332fd9d35fc225
dbt2006-02-25d3t05.flac:bdab6eba2de613f7ba3b2769565bfc73
dbt2006-02-25d3t06.flac:76124dfcf7fbc2e9a7f92afb90e4c31f
dbt2006-02-25d3t07.flac:e3f28aa116804e1d2230d65b8648f2c2

Comments
Add Comment
Other Sources (comments)
AKG481 > V3 > DA-P1 (Tim... (0)
Date User Comment