Browse Collections Artists Sources   Search Dates

Add Show    List Management    Help


Grateful Dead 10/14/94
Madison Square Garden, New York, NY
Comments Add Comment    Source Collectors    Add to Collection    Add to Want List    History
Source # 79167 Other Sources
Entered by Matt Vernon
Checksums ffp , flac-md5
Disc Counts 2 / 3
Media Size
Date Circulated
Date Added
10/16/2006
10/17/2006
Source Summary flac16; Recording Info: SBD -> Dat (44.1k) Transfer Info: Dat (Sony D8) -> Samplitude Professional v7.02 -> FLAC 
  Archive
Source Information - Download Text | Download Zip
Grateful Dead - Octover 14, 1994
Madison Square Garden - New York, NY

Recording Info:
SBD -> Dat (44.1k)

Transfer Info:
Dat (Sony D8) -> Samplitude Professional v7.02 -> FLAC
(2 Discs Audio / 2 Discs FLAC)

All Transfers and Mastering By Charlie Miller
[email protected]
October 14, 2006

Notes:
-- Set 2 is seamless

Set 1:
d1t01 - Jack Straw ->
d1t02 - West L.A. Fadeaway
d1t03 - Queen Jane Approximately
d1t04 - Lazy River Road
d1t05 - El Paso
d1t06 - Ramble On Rose
d1t07 - Box Of Rain

Set 2:
d2t01 - Scarlet Begonias ->
d2t02 - Fire On The Mountain
d2t03 - Looks Like Rain
d2t04 - Samba In The Rain
d3t01 - Corrina ->
d3t02 - Drums ->
d3t03 - Space ->
d3t04 - I Need A Miracle ->
d3t05 - Attics Of My Life ->
d3t06 - Turn On Your Lovelight

Encore:
d3t07 - Liberty


SHNTOOL OUTPUT:
    length     expanded size   cdr  WAVE problems filename
     6:09.41       65188076    ---   --   -----   gd94-10-14d1t01.wav
     8:33.22       90544988    ---   --   -----   gd94-10-14d1t02.wav
     6:31.14       69005372    ---   --   -----   gd94-10-14d1t03.wav
     7:21.02       77797148    ---   --   -----   gd94-10-14d1t04.wav
     6:27.49       68382092    ---   --   -----   gd94-10-14d1t05.wav
     9:34.04      101263052    ---   --   -----   gd94-10-14d1t06.wav
     5:16.70       55907084    ---   --   -----   gd94-10-14d1t07.wav
     9:23.70       99477884    ---   --   -----   gd94-10-14d2t01.wav
    23:27.36      248279516    ---   --   -----   gd94-10-14d2t02.wav
     8:47.61       93106316    ---   --   -----   gd94-10-14d2t03.wav
     7:06.31       75219356    ---   --   -----   gd94-10-14d2t04.wav
    17:16.15      182785724    ---   --   -----   gd94-10-14d3t01.wav
    10:46.08      113973260    ---   --   -----   gd94-10-14d3t02.wav
    17:38.44      186734732    ---   --   -----   gd94-10-14d3t03.wav
     5:28.74       58033292    ---   --   -----   gd94-10-14d3t04.wav
     5:10.30       54754604    ---   --   -----   gd94-10-14d3t05.wav
     6:32.42       69247628    ---   --   -----   gd94-10-14d3t06.wav
     6:14.47       66084188    ---   --   -----   gd94-10-14d3t07.wav
   167:46.60     1775784312 B                     (totals for 18 files)
Show Checksums
ffp
gd94-10-14d1t01.flac:5289035171565e33b15917413e972885
gd94-10-14d1t02.flac:d50e3e7b3440ecf42ba355d6b91a5c6c
gd94-10-14d1t03.flac:037334966b6390a49477af74f91e382c
gd94-10-14d1t04.flac:05ede73f6c66c556f4170cbe4ab94c66
gd94-10-14d1t05.flac:cca6a5255b34c23f42abbeceb4d4db2c
gd94-10-14d1t06.flac:046c2f14dfb08f907e513b92ca644902
gd94-10-14d1t07.flac:97b7143651869c7b76e4d0e8b0ce907c
gd94-10-14d2t01.flac:866b48bca244e6fb5f3f59ffa09332ec
gd94-10-14d2t02.flac:efcd5012c7d63b3b41743c96edb39909
gd94-10-14d2t03.flac:e2cbb57a2152f4f782be0bb84719dc28
gd94-10-14d2t04.flac:f9bcf5e8e1a42ee9fe274976de28c8d4
gd94-10-14d3t01.flac:84fd51f10ef1b94a5ea916340795472d
gd94-10-14d3t02.flac:a98678cc0af517d119fcd6874f28116d
gd94-10-14d3t03.flac:66073c48497ef8e4340508c441c1b8e3
gd94-10-14d3t04.flac:b4d289603a9bc30fe80b812a83940a05
gd94-10-14d3t05.flac:7216eca3d39586cc9b429775a92e40f3
gd94-10-14d3t06.flac:621f8540f8d1529ffbc237cc83b032a0
gd94-10-14d3t07.flac:168b7834d09f021d03d7f91812bec0af
flac-md5
ced006237e631dc28cca6ea14735ccda *gd94-10-14d1t01.flac
1ba5e6cda29e229f2fa316cedef51ebb *gd94-10-14d1t02.flac
19092e1764903447d1bf7888830afea8 *gd94-10-14d1t03.flac
c260d066a8119b807a3262b295aab7c4 *gd94-10-14d1t04.flac
f1dd6412c5ed33b6de4e5694915dca1a *gd94-10-14d1t05.flac
c84813421bfa64236547d5e059345d8f *gd94-10-14d1t06.flac
91fdcba61c90d02e5e44e8cfc939fcd3 *gd94-10-14d1t07.flac
95e6bc0ea81f750767378ca236d03001 *gd94-10-14d2t01.flac
0f55361b464c6298eefb60f270db4f95 *gd94-10-14d2t02.flac
b6fe756202a35b58fb97bd9fff0323b7 *gd94-10-14d2t03.flac
c32274104dc42ef021448391e57e1447 *gd94-10-14d2t04.flac
2a977bfbfb9e6fe1fe49acdf19bf0b74 *gd94-10-14d3t01.flac
eb4dbeddf9e696a926c4869a7a178d38 *gd94-10-14d3t02.flac
d75964e26f3f875b363ac35969e9d141 *gd94-10-14d3t03.flac
0bb3820a807786e3b073e8d466981754 *gd94-10-14d3t04.flac
591f4c5b06464a77d95fd7d86a21ca35 *gd94-10-14d3t05.flac
9992d416ef9c0caa873996f2b156cf0c *gd94-10-14d3t06.flac
c5fd83bb407a209d035c668f98b67d7e *gd94-10-14d3t07.flac

Comments
Add Comment
Other Sources (comments)
sbd> dat> c> dat> cdr; EAC>... (3) Sbd>C>Dat>CDR>EAC>CDR>EAC>S... (1) flac16; Source:... (1) flac16; Source: aud... (0) flac16; Matrix by... (0) flac16/48kHz; Master... (0)
Date User Comment