Browse Collections Artists Sources   Search Dates

Add Show    List Management    Help


Grateful Dead 10/04/87
Shoreline Amphitheatre, Mountain View, CA
Comments Add Comment    Source Collectors    Add to Collection    Add to Want List    History
Source # 79381 Other Sources
Entered by Matt Vernon
Checksums orig-ffp , orig-flac-md5 , flac-md5 , ffp
Disc Counts 2 / 2
Media Size
Date Circulated
Date Added
10/01/2005
10/21/2006
Source Summary flac16; Source: Healy Matrix SBD > PCM > DAT (48KHz)> DAT. Transfer: DAT playback on Sony PCM-R500 > XLR analog outputs > Neutrik inputs, Presonus Firebox (pre-amplification and analog-to-digital) > firewire > PC/WinXP Pro > recorded as 24 bit/96 KHz WAV using Wavelab 5 > mastered with Waves L3 Multimaximizer > rendered to 16/44.1 using Waves IDR (type I dither/ultra shaping) > tracking (CDWAV 1.9) > FLAC (level 8) 
  Archive
Source Information - Download Text | Download Zip
Grateful Dead
10/04/1987
Shoreline Amphitheater
Mountain View, CA

Source: Healy Matrix SBD > PCM > DAT (48KHz)> DAT.
DAT kindly provided for transfer by B.Koucky, rec'd from B.Fried in 1996.
Transfer:  DAT playback on Sony PCM-R500 > XLR analog outputs > Neutrik inputs, Presonus Firebox  (pre-amplification and analog-to-digital) > firewire > PC/WinXP Pro > recorded as 24 bit/96 KHz WAV using Wavelab 5 > mastered with Waves L3 Multimaximizer > rendered to 16/44.1 using Waves IDR (type I dither/ultra shaping) > tracking (CDWAV 1.9) > FLAC (level 8).  Transfer, mastering and lossless encoding by C.Ladner, October 2006.

Disc I - Set I
01  tuning
02  Jack Straw
03  When Push Comes To Shove
04  Walkin' Blues
05  High Time
06  Desolation Row
07  Iko Iko
Set II
08  tuning
09  Hell In A Bucket
10  Devil In A Blue Dress >
11  Good Golly Miss Molly > Blue Dress

Disc II - Set II
01  Estimated Prophet >
02  Eyes Of The World >
03  Drums >
04  Space >
05  I Need A Miracle >
06  Dear Mr. Fantasy >
07  Wharf Rat >
08  Not Fade Away
Encore
09  Touch Of Grey >
10  Brokedown Palace

Comments:
This is the only lineaged lossless DAE free source in circulation at the time of seeding.  
The sound quality is outstanding.

Seeded by the green mountain bros, October 2006.

**GEMS**  www.shnflac.net  October 2006

SHNTOOL LEN OUTPUT;
    length     expanded size   cdr  WAVE problems filename
     0:34.61        6141116    ---   --   ---xx   gd1987-10-04d1t01.flac
     6:08.36       64999916    ---   --   ---xx   gd1987-10-04d1t02.flac
     5:43.22       60556988    ---   --   ---xx   gd1987-10-04d1t03.flac
     7:54.06       83627756    ---   --   ---xx   gd1987-10-04d1t04.flac
     9:01.27       95495948    ---   --   ---xx   gd1987-10-04d1t05.flac
    11:32.67      122226428    ---   --   ---xx   gd1987-10-04d1t06.flac
     5:15.64       55716572    ---   --   ---xx   gd1987-10-04d1t07.flac
     0:28.68        5099180    ---   --   ---xx   gd1987-10-04d1t08.flac
     6:20.39       67123772    ---   --   ---xx   gd1987-10-04d1t09.flac
     2:51.73       30336140    ---   --   ---xx   gd1987-10-04d1t10.flac
     2:27.48       26043740    ---   --   ---xx   gd1987-10-04d1t11.flac
    10:51.30      114907004    ---   --   ---xx   gd1987-10-04d2t01.flac
     6:11.42       65543228    ---   --   ---xx   gd1987-10-04d2t02.flac
     7:02.22       74492588    ---   --   ---xx   gd1987-10-04d2t03.flac
     7:10.02       75856748    ---   --   ---xx   gd1987-10-04d2t04.flac
     3:22.04       35642252    ---   --   ---xx   gd1987-10-04d2t05.flac
     4:57.68       52550780    ---   --   ---xx   gd1987-10-04d2t06.flac
     8:17.61       87814316    ---   --   ---xx   gd1987-10-04d2t07.flac
     7:35.14       80294972    ---   --   ---xx   gd1987-10-04d2t08.flac
     6:10.34       65348012    ---   --   ---xx   gd1987-10-04d2t09.flac
     5:21.19       56669132    ---   --   ---xx   gd1987-10-04d2t10.flac
   125:19.57     1326486588 B                     (totals for 21 files, 0.5984 overall compression ratio)
Show Checksums
orig-ffp
gd1987-10-04d1t01.flac:415c63539731144e7bbe215fa9c1d1da
gd1987-10-04d1t02.flac:e8b1cdc11026eebd7800e0544d5d146c
gd1987-10-04d1t03.flac:2ee631518e060db73834f8cc1a3850dc
gd1987-10-04d1t04.flac:4679566902c62979cc6b6caa5f70fd03
gd1987-10-04d1t05.flac:c21278f5b47b0a3436e55730fa181256
gd1987-10-04d1t06.flac:37b7685a24dbfbe2acf029bfe34a0090
gd1987-10-04d1t07.flac:fd47b602af38f6c56fea83c0087c0c5c
gd1987-10-04d1t08.flac:4928aab69c22d0be24288b303b07b9cb
gd1987-10-04d1t09.flac:698356e4db004a135f4e64983a1021ab
gd1987-10-04d1t10.flac:5c7de71a8d6266a6ff369087db8fa890
gd1987-10-04d1t11.flac:a2d2e6608d99f38216f2f3f59d53eeb6
gd1987-10-04d2t01.flac:299c73b357beedd9c82e30d4f36d7cf8
gd1987-10-04d2t02.flac:15a706db76e96c3d7474045b865ab598
gd1987-10-04d2t03.flac:ff8669f1d3ec03f2d6e62efdc0698ec6
gd1987-10-04d2t04.flac:e93162dd23ea947b7ef8e9b8e0b46566
gd1987-10-04d2t05.flac:1721689571faefbb7758726060604f39
gd1987-10-04d2t06.flac:0415f588c3f30728e0d11abfceb29437
gd1987-10-04d2t07.flac:693a133187c052ba04317c9cf4595228
gd1987-10-04d2t08.flac:b44d20e787f2e5b11afe835241c57c69
gd1987-10-04d2t09.flac:7d8d29b6870b41c5e1f65457e55a88f4
gd1987-10-04d2t10.flac:0dd1a3b7f5d928ecb75deb0d641597e9
orig-flac-md5
73f35275160bf08f0ec45e59936cafff *gd1987-10-04d1t01.flac
ff0ed60e089c5a3224754ec4e3efb541 *gd1987-10-04d1t02.flac
90270440b7f341701a636ec7cc86d816 *gd1987-10-04d1t03.flac
8510686c9616ba345b1c814910120d54 *gd1987-10-04d1t04.flac
5495a7568a3e975cbbe48b1985b4b5b9 *gd1987-10-04d1t05.flac
1fc14a25305bbe159328ca308769cc29 *gd1987-10-04d1t06.flac
ba3748de07b19292ff3626671ef8c954 *gd1987-10-04d1t07.flac
6b66ddabe2545fd9316ad025234120a5 *gd1987-10-04d1t08.flac
d8ea6c24bed05a9562447aa1d4fed8dd *gd1987-10-04d1t09.flac
d0b58d5a8f1d0de19c07635a382d072e *gd1987-10-04d1t10.flac
3250eeaec93325407f8c6872e828b946 *gd1987-10-04d1t11.flac
d850545357724e8b278ed654dd844516 *gd1987-10-04d2t01.flac
058361b12fa35bce6d5d1a27878532ae *gd1987-10-04d2t02.flac
bb113206742864a88bac0b0392d19146 *gd1987-10-04d2t03.flac
014aa550e50b8010cc9f6e03c6583574 *gd1987-10-04d2t04.flac
88518d80fad7bd104122478ebdc18b98 *gd1987-10-04d2t05.flac
31c795f02ec702afb3085320ffa8af05 *gd1987-10-04d2t06.flac
26a27a5bd8667424633b5c5f7aec82a5 *gd1987-10-04d2t07.flac
b9ac3ef83a48340787b55cb8f9ac8e70 *gd1987-10-04d2t08.flac
4499958fb6c0fd8d179bf4c6af5ec711 *gd1987-10-04d2t09.flac
387b7d80bd28ea7d861a813466112304 *gd1987-10-04d2t10.flac
flac-md5
2addc41aa6008421bc85ff0301a174b6 *gd1987-10-04d1t02-patched.flac
73f35275160bf08f0ec45e59936cafff *gd1987-10-04d1t01.flac
90270440b7f341701a636ec7cc86d816 *gd1987-10-04d1t03.flac
8510686c9616ba345b1c814910120d54 *gd1987-10-04d1t04.flac
5495a7568a3e975cbbe48b1985b4b5b9 *gd1987-10-04d1t05.flac
1fc14a25305bbe159328ca308769cc29 *gd1987-10-04d1t06.flac
ba3748de07b19292ff3626671ef8c954 *gd1987-10-04d1t07.flac
6b66ddabe2545fd9316ad025234120a5 *gd1987-10-04d1t08.flac
d8ea6c24bed05a9562447aa1d4fed8dd *gd1987-10-04d1t09.flac
d0b58d5a8f1d0de19c07635a382d072e *gd1987-10-04d1t10.flac
3250eeaec93325407f8c6872e828b946 *gd1987-10-04d1t11.flac
d850545357724e8b278ed654dd844516 *gd1987-10-04d2t01.flac
058361b12fa35bce6d5d1a27878532ae *gd1987-10-04d2t02.flac
bb113206742864a88bac0b0392d19146 *gd1987-10-04d2t03.flac
014aa550e50b8010cc9f6e03c6583574 *gd1987-10-04d2t04.flac
88518d80fad7bd104122478ebdc18b98 *gd1987-10-04d2t05.flac
31c795f02ec702afb3085320ffa8af05 *gd1987-10-04d2t06.flac
26a27a5bd8667424633b5c5f7aec82a5 *gd1987-10-04d2t07.flac
b9ac3ef83a48340787b55cb8f9ac8e70 *gd1987-10-04d2t08.flac
4499958fb6c0fd8d179bf4c6af5ec711 *gd1987-10-04d2t09.flac
387b7d80bd28ea7d861a813466112304 *gd1987-10-04d2t10.flac
ffp
gd1987-10-04d1t01.flac:415c63539731144e7bbe215fa9c1d1da
gd1987-10-04d1t02-patched.flac:ca38c578af16c431500dcf6340776d93
gd1987-10-04d1t03.flac:2ee631518e060db73834f8cc1a3850dc
gd1987-10-04d1t04.flac:4679566902c62979cc6b6caa5f70fd03
gd1987-10-04d1t05.flac:c21278f5b47b0a3436e55730fa181256
gd1987-10-04d1t06.flac:37b7685a24dbfbe2acf029bfe34a0090
gd1987-10-04d1t07.flac:fd47b602af38f6c56fea83c0087c0c5c
gd1987-10-04d1t08.flac:4928aab69c22d0be24288b303b07b9cb
gd1987-10-04d1t09.flac:698356e4db004a135f4e64983a1021ab
gd1987-10-04d1t10.flac:5c7de71a8d6266a6ff369087db8fa890
gd1987-10-04d1t11.flac:a2d2e6608d99f38216f2f3f59d53eeb6
gd1987-10-04d2t01.flac:299c73b357beedd9c82e30d4f36d7cf8
gd1987-10-04d2t02.flac:15a706db76e96c3d7474045b865ab598
gd1987-10-04d2t03.flac:ff8669f1d3ec03f2d6e62efdc0698ec6
gd1987-10-04d2t04.flac:e93162dd23ea947b7ef8e9b8e0b46566
gd1987-10-04d2t05.flac:1721689571faefbb7758726060604f39
gd1987-10-04d2t06.flac:0415f588c3f30728e0d11abfceb29437
gd1987-10-04d2t07.flac:693a133187c052ba04317c9cf4595228
gd1987-10-04d2t08.flac:b44d20e787f2e5b11afe835241c57c69
gd1987-10-04d2t09.flac:7d8d29b6870b41c5e1f65457e55a88f4
gd1987-10-04d2t10.flac:0dd1a3b7f5d928ecb75deb0d641597e9

Comments
Add Comment
Other Sources (comments)
Master> DAT> CDr; via Mike Lai (2) Jay Ashley (Bertha)... (0) SBD> CM> DAT> CD> EAC> SHN... (0) flac16; Recording... (0) flac16; 1st gen... (0) flac16; Source:... (0) flac16; Recording... (0) flac16; Source Info:... (0)
Date User Comment
10/28/2006 btet I've patched and seeded a fix of d1t02 (there was a brief dropout in Jack Straw with the first few words of verse two missing). The .md5 for the fix track is:

2addc41aa6008421bc85ff0301a174b6 *gd1987-10-04d1t02-patched.flac
10/29/2006 Wharfrat73 The info file for the d1t02 patch, seeded 10/27/2006:

Grateful Dead
10/4/87
Shoreline Amphitheatre
Mountain View, CA

Patched track d1t02 (Jack Straw)

Main source (shnid 79381): Healy Matrix SBD > MC > DAT (48KHz)> DAT.
DAT kindly provided for transfer by B.Koucky, rec'd from B.Fried in 1996.
Transfer: DAT playback on Sony PCM-R500 > XLR analog outputs > Neutrik inputs, Presonus Firebox (pre-amplification and analog-to-digital) > firewire > PC/WinXP Pro > recorded as 24 bit/96 KHz WAV using Wavelab 5 > mastered with Waves L3 Multimaximizer > rendered to 16/44.1 using Waves IDR (type I dither/ultra shaping) > tracking (CDWAV 1.9) > FLAC (level 8). Transfer, mastering and lossless encoding by C.Ladner, October 2006.

Patch source (shnid 8830): SBD>CM>DAT>CD>EAC>SHN DAT > CD transfer by David Hollister.

Patching was done in CE Pro. No speed/pitch alteration necessary, patch source volume lowered 2.6 db. 1 second fades were used. Patch was done from the very beginning of the second verse to "of July". It's slightly noticeable with headphones, damn near impossible on speakers.

Note: If you're burning to CD you should run this and the following d1 files through shntool to fix the resulting SBE - otherwise there will likely be a pop between the end of this track and d1t03.

Patched and seeded by Bill Tetzeli ([email protected]) on 10/27/2006

MD5 checksum:

2addc41aa6008421bc85ff0301a174b6 *gd1987-10-04d1t02-patched.flac

shntool output:

length expanded size cdr WAVE problems filename
6:10.71 65435200 -b- -- ---xx gd1987-10-04d1t02-patched.flac

6:10.71 65435200 B (total for 1 file, 0.6479 overall compression ratio)
10/31/2006 neo_levo i listed the source incorrectly in the info file - it should be SBD > PCM > DAT. There is no cassette gen. Also it wasn't listed on the dat as being a Healy Ultramatrix but there definitely is crowd in the mix.
03/27/2007 charlie miller This originates from a cassette master. It has a tape flip at the same spot that Joani Walker's sbd cassette master flips.