Browse Collections Artists Sources   Search Dates

Add Show    List Management    Help


Grateful Dead 03/26/83
Aladdin Theater, Las Vegas, NV
Comments Add Comment    Source Collectors    Add to Collection    Add to Want List    History
Source # 79605 Other Sources
Entered by dr.unclear
Checksums ffp , flac-md5
Disc Counts 1 / 2
Media Size
Date Circulated
Date Added

10/29/2006
Source Summary flac16; Set2: Sennheiser 421 > Sony TC-770 Reel to Reel at 3 3/4 ips > Sony DTC-2000ES > DAT > M-Audio Delta 410 > wav > *Adobe AUdition 1.5 > shntool > FLAC lvl8 
  Archive
Source Information - Download Text | Download Zip
Grateful Dead
Aladdin Theatre
Las Vegas, Nevada
03/26/83


A 16bit 44kHz GEM


Source:
Sennheiser 421's set up on the soundboard > Sony TC-770 Reel to Reel at 3 3/4 ips
Taped by Frank Streeter

Transfer:
Sony DTC-2000ES > DAT > M-Audio Delta 410 > wav
DAT and Transfer courtesy of Rich Gastwirt

Edits
*Adobe AUdition 1.5 > shntool > FLAC lvl8


SET 2 ONLY

II
Disc 1
01. Scarlet Begonias >
02. Fire On The Mountain
03. Estimated Prophet >
04. Eyes Of The World >
05. The Other One >
06. Drums// >

Disc 2
01. //Space >
02. The Other One >
03. Stella Blue >
04. Around & Around >
05. One more Saturday Night
06. crowd

Encore:
07. Touch Of Grey


*Adobe Audition 1.5 edit notes
noise fixed
33:47.058 - 33:47.084
40:44.523 - 40:44.578
taper cut
55:53.080
fade-out
1:30:44.082 - 1:30:47.130
convert sample type 48 > 44.1kHz


A GEMS production -+-+- www.shnflac.net -+-+- October 2006


md5
11febabd745bf2b30ebf2d6ccc69c33d *gd1983-03-26d1t01.wav
8b6103e0b67b9c8bbcfd45811f7789d8 *gd1983-03-26d1t02.wav
e74c03dae7df2c196296936955d9f738 *gd1983-03-26d1t03.wav
d8d4d435af6c7e17bdeac0de9bc2bcd6 *gd1983-03-26d1t04.wav
c313c911e3e65ed9e8c8cb8f1606c1a2 *gd1983-03-26d1t05.wav
4135d670ca7799bc46bcf141b063938c *gd1983-03-26d1t06.wav
779ca5c33666419494da17a18e767701 *gd1983-03-26d2t01.wav
df4d9203c8c3c0844ac60d857558cd1a *gd1983-03-26d2t02.wav
9304a908088aba767b7faf72af7dacd8 *gd1983-03-26d2t03.wav
bf0043394e343f2ea7aaade4a2401185 *gd1983-03-26d2t04.wav
3da96c1ea6e5c98f2fe775e39e3dd5f4 *gd1983-03-26d2t05.wav
dc59288a9bfa4c24bf725ee5ea1e2a46 *gd1983-03-26d2t06.wav
3d57435a84bae1433a5ea6df01cfd1b7 *gd1983-03-26d2t07.wav

ffp
gd1983-03-26d1t01.flac:2b17b76acb611859da0995e95a3b4472
gd1983-03-26d1t02.flac:1b9f599a65b6a9a704dff207aadd185f
gd1983-03-26d1t03.flac:da1ff45257764c03146fbe390e44b81a
gd1983-03-26d1t04.flac:3b9c5aae0f8189ddf5a7dc3566bc865e
gd1983-03-26d1t05.flac:57950583443f1271bd43a30902de32a5
gd1983-03-26d1t06.flac:4d6f7e80f807ab9337bc9807309b2bce
gd1983-03-26d2t01.flac:a32429628000df00dc9d3fb9a5279668
gd1983-03-26d2t02.flac:b1b9b2c0e6948e91292a53402f22591a
gd1983-03-26d2t03.flac:f01246a1366dffbcdb73ae28ef388b13
gd1983-03-26d2t04.flac:321b52028600eed274c7dcada33eee7b
gd1983-03-26d2t05.flac:f17c5ddfac3f9a0ef45d5376ed79b56d
gd1983-03-26d2t06.flac:392be0d1c4431761d7e2e819b028d1c2
gd1983-03-26d2t07.flac:ea71fa6fe8af206337e2e5fcbc9f2804

shntool
    length     expanded size   cdr  WAVE problems filename
    12:54.58      136670060    ---   --   ---xx   gd1983-03-26d1t01.flac
    10:30.32      111207308    ---   --   ---xx   gd1983-03-26d1t02.flac
    12:28.21      131996636    ---   --   ---xx   gd1983-03-26d1t03.flac
     8:13.05       86977004    ---   --   ---xx   gd1983-03-26d1t04.flac
     4:45.68       50433980    ---   --   ---xx   gd1983-03-26d1t05.flac
     7:00.41       74184476    ---   --   ---xx   gd1983-03-26d1t06.flac
     4:55.67       52195628    ---   --   ---xx   gd1983-03-26d2t01.flac
     5:21.08       56643260    ---   --   ---xx   gd1983-03-26d2t02.flac
     7:34.65       80238524    ---   --   ---xx   gd1983-03-26d2t03.flac
     3:57.55       41936204    ---   --   ---xx   gd1983-03-26d2t04.flac
     5:19.29       56339852    ---   --   ---xx   gd1983-03-26d2t05.flac
     0:58.13       10261820    ---   --   ---xx   gd1983-03-26d2t06.flac
     6:47.04       71804252    ---   --   ---xx   gd1983-03-26d2t07.flac
    90:47.16      960889004 B                     (totals for 13 files, 0.5871 overall compression ratio)
Show Checksums
ffp
gd1983-03-26d1t01.flac:2b17b76acb611859da0995e95a3b4472
gd1983-03-26d1t02.flac:1b9f599a65b6a9a704dff207aadd185f
gd1983-03-26d1t03.flac:da1ff45257764c03146fbe390e44b81a
gd1983-03-26d1t04.flac:3b9c5aae0f8189ddf5a7dc3566bc865e
gd1983-03-26d1t05.flac:57950583443f1271bd43a30902de32a5
gd1983-03-26d1t06.flac:4d6f7e80f807ab9337bc9807309b2bce
gd1983-03-26d2t01.flac:a32429628000df00dc9d3fb9a5279668
gd1983-03-26d2t02.flac:b1b9b2c0e6948e91292a53402f22591a
gd1983-03-26d2t03.flac:f01246a1366dffbcdb73ae28ef388b13
gd1983-03-26d2t04.flac:321b52028600eed274c7dcada33eee7b
gd1983-03-26d2t05.flac:f17c5ddfac3f9a0ef45d5376ed79b56d
gd1983-03-26d2t06.flac:392be0d1c4431761d7e2e819b028d1c2
gd1983-03-26d2t07.flac:ea71fa6fe8af206337e2e5fcbc9f2804
flac-md5
c90567b97203ba15b30a9e5a14a9ac9d *gd1983-03-26d1t01.flac
da90f16ab0659636b56b7fc1000e0402 *gd1983-03-26d1t02.flac
5bbfa5c1a816b533fe839e8665703f86 *gd1983-03-26d1t03.flac
59f12fa4c9f634ea777504f44bfa9d27 *gd1983-03-26d1t04.flac
a437d47c9fa515529bc5eddf9e8fb7c7 *gd1983-03-26d1t05.flac
3e91ec01c8226a3c50511923fa845220 *gd1983-03-26d1t06.flac
d7522402b456d5aee25fc49c5496bdcd *gd1983-03-26d2t01.flac
334746cb39a14abdbdd5e73ae15e323e *gd1983-03-26d2t02.flac
7ba347b35f7a00fcfd0ebfd889ef7b28 *gd1983-03-26d2t03.flac
e9724732a4dd6a2c0a4c9ef75a1e8adb *gd1983-03-26d2t04.flac
263c94e1cb890708d90f94c34678f2db *gd1983-03-26d2t05.flac
14da19e98ff99af5602dbec3754cf20f *gd1983-03-26d2t06.flac
caa16c0b01faebe47c7cde3de505717c *gd1983-03-26d2t07.flac

Comments
Add Comment
Other Sources (comments)
AUD>MC>DAT>CDR KM 54?s; via... (0) flac16/48; Set2:... (0) flac16; Recording... (0) flac16; AUD:... (0) flac16/48kHz;... (0) flac16/44.1 ... (0) flac24/48 Recording... (0)
Date User Comment