Browse Collections Artists Sources   Search Dates

Add Show    List Management    Help


Grateful Dead 03/26/83
Aladdin Theater, Las Vegas, NV
Comments Add Comment    Source Collectors    Add to Collection    Add to Want List    History
Source # 79606 Other Sources
Entered by dr.unclear
Checksums ffp , flac-md5
Disc Counts 1 / 2
Media Size
Date Circulated
Date Added

10/29/2006
Source Summary flac16/48; Set2: Sennheiser 421 > Sony TC-770 Reel to Reel at 3 3/4 ips > Sony DTC-2000ES > DAT > M-Audio Delta 410 > wav > Adobe Audition 1.5 > shntool > FLAC lvl8 
  Archive
Source Information - Download Text | Download Zip
Grateful Dead
Aladdin Theatre
Las Vegas, Nevada
03/26/83


A 16bit 48kHz GEM


Source:
Sennheiser 421's set up on the soundboard > Sony TC-770 Reel to Reel at 3 3/4 ips
Taped by Frank Streeter

Transfer:
Sony DTC-2000ES > DAT > M-Audio Delta 410 > wav
DAT and Transfer courtesy of Rich Gastwirt

Edits
*Adobe Audition 1.5 > shntool > FLAC lvl8



II

01. Scarlet Begonias >
02. Fire On The Mountain
03. Estimated Prophet >
04. Eyes Of The World >
05. The Other One >
06. Drums// >
07. //Space >
08. The Other One >
09. Stella Blue >
10. Around & Around >
11. One more Saturday Night
12. crowd

Encore:
13. Touch Of Grey


*Adobe Audition 1.5 edit notes
noise fixed
33:47.058 - 33:47.084
40:44.523 - 40:44.578
taper cut
55:53.080
fade-out
1:30:44.082 - 1:30:47.130


A GEMS production -+-+- www.shnflac.net -+-+- October 2006


shntool
    length     expanded size   cdr  WAVE problems filename
    12:54.776     148757036    cxx   --   ---xx   gd1983-03-26d1t001.flac
    10:30.425     121041644    cxx   --   ---xx   gd1983-03-26d1t002.flac
    12:28.280     143669804    cxx   --   ---xx   gd1983-03-26d1t003.flac
     8:13.063      94668140    cxx   --   ---xx   gd1983-03-26d1t004.flac
     4:45.905      54893804    cxx   --   ---xx   gd1983-03-26d1t005.flac
     7:00.631      80761196    cxx   --   ---xx   gd1983-03-26d1t006.flac
     4:55.818      56797100    cxx   --   ---xx   gd1983-03-26d1t007.flac
     5:21.102      61651628    cxx   --   ---xx   gd1983-03-26d1t008.flac
     7:34.870      87335084    cxx   --   ---xx   gd1983-03-26d1t009.flac
     3:57.724      45643052    cxx   --   ---xx   gd1983-03-26d1t010.flac
     5:19.392      61323308    cxx   --   ---xx   gd1983-03-26d1t011.flac
     0:58.172      11169068    cxx   --   ---xx   gd1983-03-26d1t012.flac
     6:47.050      78153644    cxx   --   ---xx   gd1983-03-26d1t013.flac
    90:47.208    1045864508 B                     (totals for 13 files, 0.5737 overall compression ratio)


Show Checksums
ffp
gd1983-03-26d1t001.flac:df8e3d75f010c443b4c225802613c8d4
gd1983-03-26d1t002.flac:2159819fc8dd2a78d5c8ab32e5aab1da
gd1983-03-26d1t003.flac:f0f0af34056af20ae0ee9532bdad57c5
gd1983-03-26d1t004.flac:ea58315637123750de066ea16c39d04e
gd1983-03-26d1t005.flac:29ba05978a1b48c8b5135db8120eebd9
gd1983-03-26d1t006.flac:0957b655652fb9e30c9be1327ffaef64
gd1983-03-26d1t007.flac:e3bbfa5cea25b75293ebbb4d26d03dc7
gd1983-03-26d1t008.flac:24772147e730b862c79f4155335513a2
gd1983-03-26d1t009.flac:6672c99265f9e8f837f71b7f569b7087
gd1983-03-26d1t010.flac:1b2e490744ef079cf7dc2c5023b97ff1
gd1983-03-26d1t011.flac:c3e0939bee490cc92a8e184d5ef88733
gd1983-03-26d1t012.flac:9b5e1f9a5fd1fe99fc459160e5606271
gd1983-03-26d1t013.flac:330b30ceebe83b302912a43e3edeb9c0
flac-md5
9c77cae2ba429f24e53a44da4df09419 *gd1983-03-26d1t001.flac
4ba52d83209c4a2a853f5151f00e397f *gd1983-03-26d1t002.flac
5342be786eff6cb495819c8c0e9e1727 *gd1983-03-26d1t003.flac
b5978296c78f14d976fa7d78942c767a *gd1983-03-26d1t004.flac
73ebc18e039943ba224fae661afbab08 *gd1983-03-26d1t005.flac
04414fd0444b8b18ae2cf1091caa3b71 *gd1983-03-26d1t006.flac
007fcd1d4b91a88cd639016d0cd96ea9 *gd1983-03-26d1t007.flac
62c07dc57fa1a3c0625683e81aed7102 *gd1983-03-26d1t008.flac
ecc40adb9c50cf0fbc2225fe7b80f677 *gd1983-03-26d1t009.flac
bdfc6be9d7e098e16662c4e4bacf5547 *gd1983-03-26d1t010.flac
8f1f7e57398fe674682c6dda80151119 *gd1983-03-26d1t011.flac
0cf8c2680ef823f5abe990822ef2199b *gd1983-03-26d1t012.flac
f484dbd1cc85bd79807980f7606cfddc *gd1983-03-26d1t013.flac

Comments
Add Comment
Other Sources (comments)
AUD>MC>DAT>CDR KM 54?s; via... (0) flac16; Set2:... (0) flac16; Recording... (0) flac16; AUD:... (0) flac16/48kHz;... (0) flac16/44.1 ... (0) flac24/48 Recording... (0)
Date User Comment