Browse Collections Artists Sources   Search Dates

Add Show    List Management    Help


Drive-By Truckers 10/27/06
New Daisy Theater, Memphis, TN
Comments Add Comment    Source Collectors    Add to Collection    Add to Want List    History
Source # 79651 Other Sources
Entered by Kyle pike
Checksums md5 , ffp
Disc Counts 2 / 2
Media Size
Date Circulated
Date Added

11/01/2006
Source Summary [16 Bit] AKG c414b xls/ST > ACM-671 (Tommy Whatley ) 
Source Information - Download Text | Download Zip
Drive-By Truckers
10-27-2006
New Daisy Theater
Memphis, TN

taped and transferred by Tommy Whatley ([email protected])

source: AKG c414b xls/ST (cards) > Oade ACM Marantz PMD-671 (24/48)
        1' ROC, 7' stand, ~25' from stage

transfer: PMD-671 > Toshiba A45-S120

conversion: 24/48 wav files resampled to 44.1 with Sound Forge 6.0 at highest quality settings and dithered to 16 bit, split into tracks with CD Wave, fades at beginning & end of set with Sound Forge 6.0, FLAC files generated with FLAC front end.


***************Do NOT sell this recording or trade in lossy formats***************


Disc one:

01: Lookout Mountain
02: 72
03: Ain't Never Gonna Change
04: Ronnie & Neil
05: One of These Days
06: February 14th
07: Goddamn Lonely Love
08: The Night G.G. Allin Came to Town
09: Shut Up and Get On the Plane
10: Do It Yourself
11: Dress Blues
12: The Living Bubba
13: Uncle Frank
14: Sinkhole

Disc two:

01: The Day John Henry Died
02: Wednesday
03: Gravity's Gone
04: Patterson banter
05: Glad and Sorry
06: Bulldozers and Dirt
07: 18 Wheels of Love
08: Marry Me
09: Puttin' People on the Moon

encore:

10: Outfit
11: Women Without Whiskey
12: Let There Be Rock
13: Buttholeville
14: People Who Died


notes:  The Drams opened



length     expanded size   cdr  WAVE problems filename
     6:03.55       64162604    ---   --   ---xx   dbt2006-10-27d1t01.flac
     5:47.22       61262588    ---   --   ---xx   dbt2006-10-27d1t02.flac
     5:30.18       58254380    ---   --   ---xx   dbt2006-10-27d1t03.flac
     5:16.45       55848284    ---   --   ---xx   dbt2006-10-27d1t04.flac
     5:27.41       57779276    ---   --   ---xx   dbt2006-10-27d1t05.flac
     4:32.33       48058460    ---   --   ---xx   dbt2006-10-27d1t06.flac
     5:33.54       58868252    ---   --   ---xx   dbt2006-10-27d1t07.flac
     5:19.36       56356316    ---   --   ---xx   dbt2006-10-27d1t08.flac
     4:13.74       44803292    ---   --   ---xx   dbt2006-10-27d1t09.flac
     3:57.18       41849180    ---   --   ---xx   dbt2006-10-27d1t10.flac
     4:24.65       46722524    ---   --   ---xx   dbt2006-10-27d1t11.flac
     6:23.04       67570652    ---   --   ---xx   dbt2006-10-27d1t12.flac
     5:08.65       54484124    ---   --   ---xx   dbt2006-10-27d1t13.flac
     3:40.03       38815100    ---   --   ---xx   dbt2006-10-27d1t14.flac
     4:28.29       47343452    ---   --   ---xx   dbt2006-10-27d2t01.flac
     4:41.08       49587260    ---   --   ---xx   dbt2006-10-27d2t02.flac
     3:38.69       38617532    ---   --   ---xx   dbt2006-10-27d2t03.flac
     1:42.17       18032828    ---   --   ---xx   dbt2006-10-27d2t04.flac
     3:34.11       37775516    ---   --   ---xx   dbt2006-10-27d2t05.flac
     4:41.34       49648412    ---   --   ---xx   dbt2006-10-27d2t06.flac
     8:20.70       88364684    ---   --   ---xx   dbt2006-10-27d2t07.flac
     5:45.63       61006220    ---   --   ---xx   dbt2006-10-27d2t08.flac
     8:34.70       90834284    ---   --   ---xx   dbt2006-10-27d2t09.flac
     4:31.24       47860892    ---   --   ---xx   dbt2006-10-27d2t10.flac
     4:24.73       46741340    ---   --   ---xx   dbt2006-10-27d2t11.flac
     6:16.62       66472268    ---   --   ---xx   dbt2006-10-27d2t12.flac
    10:45.58      113914460    ---   --   ---xx   dbt2006
Show Checksums
md5
36d4a968d7f32953a27fdc4287146fe6 *dbt2006-10-27d1t01.flac
d29021dd93bb52e3b6803ad1e183050a *dbt2006-10-27d1t02.flac
df2940de7095e41335bb183c57e00e43 *dbt2006-10-27d1t03.flac
9575e2a3c0c2c3d371a51123fd8e0fd4 *dbt2006-10-27d1t04.flac
16ea115e7c50ab46e7ba7ff749ca6efb *dbt2006-10-27d1t05.flac
c2bae4b7ae3781687313c734436d8d3f *dbt2006-10-27d1t06.flac
86edcdb7f9723f1f89c62e091434b53b *dbt2006-10-27d1t07.flac
2a3d55cf0906f11713228e2f955b4ab3 *dbt2006-10-27d1t08.flac
537458a1336bc43035451403ffbeddc7 *dbt2006-10-27d1t09.flac
7ced852ea5ea3822de9e0f400aa9195c *dbt2006-10-27d1t10.flac
6ec50b86a2cce5d2e5962ba223069f93 *dbt2006-10-27d1t11.flac
8b413d994e8a17eb51b5f1e42921e6b3 *dbt2006-10-27d1t12.flac
b73320180010afc02ab866cebf45028d *dbt2006-10-27d1t13.flac
36be194ffea3c640402c56aad795f0de *dbt2006-10-27d1t14.flac
00e997c37fd1851dc2cea5d2f5d25ebb *dbt2006-10-27d2t01.flac
87e2b402088dd5aa9cc683a9bb958605 *dbt2006-10-27d2t02.flac
41123c7f06114dd97d8145d11d2c1da1 *dbt2006-10-27d2t03.flac
542aac7f292939c471149ba53532a01a *dbt2006-10-27d2t04.flac
30127e2fbb7178b89a0c95ecfb1e3525 *dbt2006-10-27d2t05.flac
4f95584b1518173965dca23713835ff2 *dbt2006-10-27d2t06.flac
002940904c93e3eacccdf2b750de8845 *dbt2006-10-27d2t07.flac
3fd6f9bd7c9193580dae2c64cc24ee28 *dbt2006-10-27d2t08.flac
9481d8a0f0a20ba4d355ef0933f8026f *dbt2006-10-27d2t09.flac
17ec0d846ca6977e4df153b9fc2fad75 *dbt2006-10-27d2t10.flac
1f6bfc7a296dbfefb014a0bd45ae9ddd *dbt2006-10-27d2t11.flac
168287dcb3bc62fa049dc671dae7c9f0 *dbt2006-10-27d2t12.flac
9cda6d863dc75cc7e9409214acfbaa78 *dbt2006-10-27d2t13.flac
02ad13d6c911e62c81bd07c602df41ec *dbt2006-10-27d2t14.flac
ffp
dbt2006-10-27d1t01.flac:32ab99d29bd4bf7bf2446693b4f2fdb2
dbt2006-10-27d1t02.flac:e456747494b99aa2ad696c17fa295a5a
dbt2006-10-27d1t03.flac:f04e57a78c949e9f7dfe49f690d27fd8
dbt2006-10-27d1t04.flac:055ea08699cfa53772992b77e09a2c93
dbt2006-10-27d1t05.flac:e685216cf34aca5d4ee652c646e7bda1
dbt2006-10-27d1t06.flac:e9fad7bdffc5e698a60924500b613b2c
dbt2006-10-27d1t07.flac:092e224e95f3b8fe23fc2de85d501146
dbt2006-10-27d1t08.flac:8ed44d4fbab94c7ab16369e92fda7098
dbt2006-10-27d1t09.flac:0eea563eb20523d4994251e889b2451a
dbt2006-10-27d1t10.flac:1edf49ecef48297a6a5d1a919d0564f2
dbt2006-10-27d1t11.flac:c13a5bf9a7a7d611aef613a607b09627
dbt2006-10-27d1t12.flac:9aa41201cb1d485a078259885b8c728a
dbt2006-10-27d1t13.flac:24c4de6ceb4bdef0dea0d2cb329d6c0c
dbt2006-10-27d1t14.flac:6939f630ad60f3b5a27c61838474007e
dbt2006-10-27d2t01.flac:592ec60de59843ec327e6323fc2cb029
dbt2006-10-27d2t02.flac:5f081197f8f0798828d0d531bfee8afd
dbt2006-10-27d2t03.flac:59a0e3eb4df4f5dbb36006d65c99aef3
dbt2006-10-27d2t04.flac:583a0098301e9d7b59c383508fbc0919
dbt2006-10-27d2t05.flac:5645c9ef53497fad67ca87e270698dd2
dbt2006-10-27d2t06.flac:801a6bb4d7b40e69807ed92555ddf148
dbt2006-10-27d2t07.flac:ac08ddb94ced2362f933ff88be5bee46
dbt2006-10-27d2t08.flac:d1399ae0baf96b7faaa5e7220357806b
dbt2006-10-27d2t09.flac:4c4d56ec49cec0e22dffc4d8bb2b6bb0
dbt2006-10-27d2t10.flac:9e24c9d4ebe774b01ee9bf50bb027e95
dbt2006-10-27d2t11.flac:bfca6da9630d69124f0cc76162209898
dbt2006-10-27d2t12.flac:7f5f83e4d861ff1af305f91cc18b71b5
dbt2006-10-27d2t13.flac:40e6e03fcb1cda1d31599eef6c9cc66f
dbt2006-10-27d2t14.flac:dca294cfdf721caf0374d09b7d7d7c53

Comments
Add Comment
Other Sources (comments)
[16 bit] Neumann ak40 > lc3... (0) Schoeps CCM4L > V3 > DA-P1... (0)
Date User Comment