Browse Collections Artists Sources   Search Dates

Add Show    List Management    Help


Grateful Dead 11/09/79
Community War Memorial Auditorium, Buffalo, NY
Comments Add Comment    Source Collectors    Add to Collection    Add to Want List    History
Source # 79702 Other Sources
Entered by Matt Vernon
Checksums ffp , flac-md5
Disc Counts 2 / 3
Media Size
Date Circulated
Date Added
11/03/2006
11/04/2006
Source Summary flac16; Audience tape of unknown lineage Transfer: C > Sony TC-D5M > Realtek AC97 > Soundforge > CD-Wave > TLH v.1.0.0.72 (for SBE-OK, FLAC compression & checksums) > FLAC, by Andrew F. November 2006  
  Archive
Source Information - Download Text | Download Zip
GRATEFUL DEAD
Memorial Auditorium, "The Aud"
Buffalo NY
11-09-1979

Audience tape of unknown lineage

Disc One (75:34)

01 crowd & tuning
02 Alabama Getaway >
03 Promised Land
04 They Love Eachother
05 Cassidy
06 Loser
07 Lazy Lightnin' > Supplication
08 Althea
09 Easy to Love You
10 Jack Straw
-- set break --

Disc Two (66:15)

01 Dancin' in the Streets >
02 Franklin's Tower
03 Estimated Prophet >
04 He's Gone >
05 Jam >
06 Drums >

Disc Three (41:02)

01 Drums continued >
02 Space >
03 Wharf Rat >
04 I Need a Miracle >
05 Bertha >
06 Good Lovin'
-- encore --
07 U.S. Blues

Transfer: C > Sony TC-D5M > Realtek AC97 > Soundforge > CD-Wave >
TLH v.1.0.0.72 (for SBE-OK, FLAC compression & checksums) > FLAC,
by Andrew F. November 2006.

Notes: There are two small cuts: near the end of Estimated (track
time 11:01.716); and near the end of Drums, located at the break
between discs two and three. Soundforge was used to make fades,
adjust levels, and for some small edits. THANKS to Joey Browning
for lending his tapes, and to Jake Feinberg for his assistance
with this project.    ***ENJOY!***

MD-5

78e53f272ef001869d5d7cfc80d7fc1a *gd1979-11-09d1t01.flac
dc3767d13831aaac9c5573c1255b54f0 *gd1979-11-09d1t02.flac
3eabaf60345da27302685a3366652904 *gd1979-11-09d1t03.flac
419a3ed5965c632ba9207b01638874a1 *gd1979-11-09d1t04.flac
e5607c972c554d73f7bfc9a1f7e8b92c *gd1979-11-09d1t05.flac
99162dc38eefeec5d63de09f39147b02 *gd1979-11-09d1t06.flac
eb5ebcb2e6b689003bf88391674b5a3c *gd1979-11-09d1t07.flac
6a3807fab5f30002e69a9b353d26a76c *gd1979-11-09d1t08.flac
7d18581f3052a25a955f1d5a74760aed *gd1979-11-09d1t09.flac
407fbcb77df3bc8b1c6684fd873e6111 *gd1979-11-09d1t10.flac
523f4a65f8eae714ffec78cf60e1a061 *gd1979-11-09d2t01.flac
0d35e020e1abc808546bbd9789d93388 *gd1979-11-09d2t02.flac
9a7171ab3575ed8241af50e0a8b28415 *gd1979-11-09d2t03.flac
8f0078012b026905242f235688e17a49 *gd1979-11-09d2t04.flac
eaceb5c5df1872826d200a50d286fe7d *gd1979-11-09d2t05.flac
833c2f4f538610aa4bbcbcd1b40d934d *gd1979-11-09d2t06.flac
1efc263f3baf97364e6ba483ce2ac20c *gd1979-11-09d3t01.flac
50edabbf0ff42cf57812908f8243394c *gd1979-11-09d3t02.flac
89cc713ec0e6b03cc8a8f989963c4a69 *gd1979-11-09d3t03.flac
a5d524bd1e2af9d68129fe5c8c9a7674 *gd1979-11-09d3t04.flac
f10c315e1be542d1dc3743a56410a207 *gd1979-11-09d3t05.flac
59020feec9217e69bbe1950ad23a6e09 *gd1979-11-09d3t06.flac
a6eca6d46e3478d48bfa7ce789a4e112 *gd1979-11-09d3t07.flac

FFP

gd1979-11-09d1t01.flac:a8fd5ae140103e78e5cc61868086e923
gd1979-11-09d1t02.flac:9d39dea6d16fa057392f2966ad9b1a06
gd1979-11-09d1t03.flac:021d76a1d1063649873cfdaefb40e308
gd1979-11-09d1t04.flac:3a4864c622ab6ba09f26b63bb8a62616
gd1979-11-09d1t05.flac:99fbb75f4d517bb22871af3ef2b03edb
gd1979-11-09d1t06.flac:ad7c718ac0cfd92d7bc7efb696107e1e
gd1979-11-09d1t07.flac:bbee600be5cce71d39814fc66ae2b42c
gd1979-11-09d1t08.flac:2bfb756a49986b7826790dd300ca681e
gd1979-11-09d1t09.flac:32160341d2434c35c7362706fe1267c1
gd1979-11-09d1t10.flac:76105a8036f06557051744a775227256
gd1979-11-09d2t01.flac:e04262dcae877168a26919985160bb2b
gd1979-11-09d2t02.flac:bb9a36158c99ca06669a85e4d2c5e690
gd1979-11-09d2t03.flac:fa07fc2b64ba521c9cceb4016c828975
gd1979-11-09d2t04.flac:ebd68ecc105391f6e834c34ac0bc9776
gd1979-11-09d2t05.flac:d7b186ef89a29046ff4cc8bd0bbe5974
gd1979-11-09d2t06.flac:9ca8757126a61c8ddce2a2986bdfae30
gd1979-11-09d3t01.flac:bb7d59fa5de164ac29e4c8727215abda
gd1979-11-09d3t02.flac:3ed1640376ddedd6598eab00d88d0167
gd1979-11-09d3t03.flac:5506e4ee5be61d1667d89374bad8b152
gd1979-11-09d3t04.flac:5b8ebb9f0c54b54e084703cb07cce155
gd1979-11-09d3t05.flac:afb4b07f41a0e15c3fe6154d6d6102d9
gd1979-11-09d3t06.flac:5652d3739691fc74cbf30fa49f3f7779
gd1979-11-09d3t07.flac:adffa32e86bf077c0f21d7c828af7752

SHNTOOL

    length     expanded size   cdr  WAVE problems filename
     4:46.44       50553932    ---   --   ---xx   gd1979-11-09d1t01.flac
     6:17.28       66568700    ---   --   ---xx   gd1979-11-09d1t02.flac
     5:59.29       63395852    ---   --   ---xx   gd1979-11-09d1t03.flac
     8:47.11       92988716    ---   --   ---xx   gd1979-11-09d1t04.flac
     6:58.65       73888124    ---   --   ---xx   gd1979-11-09d1t05.flac
     9:22.61       99280316    ---   --   ---xx   gd1979-11-09d1t06.flac
    10:50.66      114815276    ---   --   ---xx   gd1979-11-09d1t07.flac
    11:49.72      125236988    ---   --   ---xx   gd1979-11-09d1t08.flac
     4:29.46       47559836    ---   --   ---xx   gd1979-11-09d1t09.flac
     6:11.48       65557340    ---   --   ---xx   gd1979-11-09d1t10.flac
    13:21.21      141345836    ---   --   ---xx   gd1979-11-09d2t01.flac
    11:51.62      125566268    ---   --   ---xx   gd1979-11-09d2t02.flac
    13:05.00      138474044    ---   --   ---xx   gd1979-11-09d2t03.flac
    11:04.14      117162572    ---   --   ---xx   gd1979-11-09d2t04.flac
     8:34.30       90740204    ---   --   ---xx   gd1979-11-09d2t05.flac
     8:18.47       87957788    ---   --   ---xx   gd1979-11-09d2t06.flac
     2:22.72       25218188    ---   --   ---xx   gd1979-11-09d3t01.flac
     4:00.25       42394844    ---   --   ---xx   gd1979-11-09d3t02.flac
    11:12.44      118644332    ---   --   ---xx   gd1979-11-09d3t03.flac
     4:02.62       42834668    ---   --   ---xx   gd1979-11-09d3t04.flac
     6:42.27       70976348    ---   --   ---xx   gd1979-11-09d3t05.flac
     7:04.20       74840684    ---   --   ---xx   gd1979-11-09d3t06.flac
     5:37.18       59489180    ---   --   ---xx   gd1979-11-09d3t07.flac
   182:52.12     1935490036 B                     (totals for 23 files, 0.5843 overall compression ratio)

There were no sector boundary errors.
Show Checksums
ffp
gd1979-11-09d1t01.flac:a8fd5ae140103e78e5cc61868086e923
gd1979-11-09d1t02.flac:9d39dea6d16fa057392f2966ad9b1a06
gd1979-11-09d1t03.flac:021d76a1d1063649873cfdaefb40e308
gd1979-11-09d1t04.flac:3a4864c622ab6ba09f26b63bb8a62616
gd1979-11-09d1t05.flac:99fbb75f4d517bb22871af3ef2b03edb
gd1979-11-09d1t06.flac:ad7c718ac0cfd92d7bc7efb696107e1e
gd1979-11-09d1t07.flac:bbee600be5cce71d39814fc66ae2b42c
gd1979-11-09d1t08.flac:2bfb756a49986b7826790dd300ca681e
gd1979-11-09d1t09.flac:32160341d2434c35c7362706fe1267c1
gd1979-11-09d1t10.flac:76105a8036f06557051744a775227256
gd1979-11-09d2t01.flac:e04262dcae877168a26919985160bb2b
gd1979-11-09d2t02.flac:bb9a36158c99ca06669a85e4d2c5e690
gd1979-11-09d2t03.flac:fa07fc2b64ba521c9cceb4016c828975
gd1979-11-09d2t04.flac:ebd68ecc105391f6e834c34ac0bc9776
gd1979-11-09d2t05.flac:d7b186ef89a29046ff4cc8bd0bbe5974
gd1979-11-09d2t06.flac:9ca8757126a61c8ddce2a2986bdfae30
gd1979-11-09d3t01.flac:bb7d59fa5de164ac29e4c8727215abda
gd1979-11-09d3t02.flac:3ed1640376ddedd6598eab00d88d0167
gd1979-11-09d3t03.flac:5506e4ee5be61d1667d89374bad8b152
gd1979-11-09d3t04.flac:5b8ebb9f0c54b54e084703cb07cce155
gd1979-11-09d3t05.flac:afb4b07f41a0e15c3fe6154d6d6102d9
gd1979-11-09d3t06.flac:5652d3739691fc74cbf30fa49f3f7779
gd1979-11-09d3t07.flac:adffa32e86bf077c0f21d7c828af7752
flac-md5
78e53f272ef001869d5d7cfc80d7fc1a *gd1979-11-09d1t01.flac
dc3767d13831aaac9c5573c1255b54f0 *gd1979-11-09d1t02.flac
3eabaf60345da27302685a3366652904 *gd1979-11-09d1t03.flac
419a3ed5965c632ba9207b01638874a1 *gd1979-11-09d1t04.flac
e5607c972c554d73f7bfc9a1f7e8b92c *gd1979-11-09d1t05.flac
99162dc38eefeec5d63de09f39147b02 *gd1979-11-09d1t06.flac
eb5ebcb2e6b689003bf88391674b5a3c *gd1979-11-09d1t07.flac
6a3807fab5f30002e69a9b353d26a76c *gd1979-11-09d1t08.flac
7d18581f3052a25a955f1d5a74760aed *gd1979-11-09d1t09.flac
407fbcb77df3bc8b1c6684fd873e6111 *gd1979-11-09d1t10.flac
523f4a65f8eae714ffec78cf60e1a061 *gd1979-11-09d2t01.flac
0d35e020e1abc808546bbd9789d93388 *gd1979-11-09d2t02.flac
9a7171ab3575ed8241af50e0a8b28415 *gd1979-11-09d2t03.flac
8f0078012b026905242f235688e17a49 *gd1979-11-09d2t04.flac
eaceb5c5df1872826d200a50d286fe7d *gd1979-11-09d2t05.flac
833c2f4f538610aa4bbcbcd1b40d934d *gd1979-11-09d2t06.flac
1efc263f3baf97364e6ba483ce2ac20c *gd1979-11-09d3t01.flac
50edabbf0ff42cf57812908f8243394c *gd1979-11-09d3t02.flac
89cc713ec0e6b03cc8a8f989963c4a69 *gd1979-11-09d3t03.flac
a5d524bd1e2af9d68129fe5c8c9a7674 *gd1979-11-09d3t04.flac
f10c315e1be542d1dc3743a56410a207 *gd1979-11-09d3t05.flac
59020feec9217e69bbe1950ad23a6e09 *gd1979-11-09d3t06.flac
a6eca6d46e3478d48bfa7ce789a4e112 *gd1979-11-09d3t07.flac

Comments
Add Comment
Other Sources (comments)
Updated source: SBD> Cm>... (9) flac16; SBD> Cm>... (1) flac16; 2 Songs from... (0)
Date User Comment