Browse Collections Artists Sources   Search Dates

Add Show    List Management    Help


Phil Lesh & Friends 12/02/03
Beacon Theater, New York, NY
Comments Add Comment    Source Collectors    Add to Collection    Add to Want List    History
Source # 79725 Other Sources
Entered by Matt Vernon
Checksums flac-md5 , ffp
Disc Counts 2 / 3
Media Size
Date Circulated
Date Added
10/30/2006
11/05/2006
Source Summary FOB Source: Sonics Studios DSM-6SL > Sonics Studios PAC-6LC power and lo-cut > Sony PCM-M1 Dat with Sonics MOD-2 built in pre-amp. Taped from third row on the aisle in front of Warren (stage left). Transfer: MAD > Sony PCM-M1 > Marantz CDR-500 > EAC > Soundforge > CD-Wave > TLH v.1.0.0.72 (for SBE-OK, FLAC compression, checksums) > FLAC, November 2006. Taped and transferred by Andrew F.  
  Archive
Source Information - Download Text | Download Zip
PHIL LESH AND FRIENDS
Beacon Theater
New York NY
12-02-2003

Rob Barraco, Warren Haynes, Jimmy Herring, Phil Lesh, & John Molo

Disc One (63:07)

01 crowd & tuning
02 Jam >
03 Shakedown Street >
04 Casey Jones
05 Jam >
06 Hard to Handle >

Disc Two (60:58)

01 Masons Children >
02 Built to Last >
03 Passenger
--set break--
04 crowd & tuning
05 Lucy in the Sky with Diamonds >
06 Stronger Than Dirt
07 Morning Dew

Disc Three (68:58)

01 Unbroken Chain >
02 Sugaree >
03 Midnight Hour >
04 Goin Down the Road >
05 Not Fade Away
--encore--
06 Phil's rap, band intros
07 US Blues

FOB Source: Sonics Studios DSM-6SL > Sonics Studios PAC-6LC power
and lo-cut > Sony PCM-M1 Dat with Sonics MOD-2 built in pre-amp.
Taped from third row on the aisle in front of Warren (stage left).

Transfer: MAD > Sony PCM-M1 > Marantz CDR-500 > EAC > Soundforge >
CD-Wave > TLH v.1.0.0.72 (for SBE-OK, FLAC compression, checksums) >
FLAC, November 2006. Taped and transferred by Andrew F. ***ENJOY***

MD-5

d49f1ee0560ac2ee82e2a2ebc46d69e9 *plf2003-12-02d1t01.flac
729d66510469140d6729da530c34345e *plf2003-12-02d1t02.flac
90b8a7ab4259962a001eafe7985f3178 *plf2003-12-02d1t03.flac
ac61758eef1f4ea4e370f69c11104eef *plf2003-12-02d1t04.flac
10738784154d5ca42866aa76061c9de5 *plf2003-12-02d1t05.flac
5e48f823fd2e2aa454012ba8ecf9145d *plf2003-12-02d1t06.flac
a5ad1d876e13f013b412a7c1440ebb8c *plf2003-12-02d2t01.flac
9d5ebe91deac59e3b12a4ff6a1d13801 *plf2003-12-02d2t02.flac
67cba727698cd428e632101629fa64ba *plf2003-12-02d2t03.flac
48b8ff1e05059a590f980a682a2b828b *plf2003-12-02d2t04.flac
7b5f3f4f5f4bbd197ce78512c4a45b46 *plf2003-12-02d2t05.flac
a8a6cd7eb004e4f5eece149419f0be1b *plf2003-12-02d2t06.flac
0a437a2fb8fb90ec8ad33b81b559c28c *plf2003-12-02d2t07.flac
748b673f7ebe0d567502e77b8e20dbc1 *plf2003-12-02d3t01.flac
6490ebaee377242ec0a2d79a679eb966 *plf2003-12-02d3t02.flac
18ea775b648036c50af9171e610bf256 *plf2003-12-02d3t03.flac
60e1254f7fb4c3eef59470ae6ddf32c0 *plf2003-12-02d3t04.flac
057be5ffabe5bf544bb08a9db131e6d4 *plf2003-12-02d3t05.flac
107e3f3639267a18db598c10bd068796 *plf2003-12-02d3t06.flac
155683b887e8e60057808beb55887c33 *plf2003-12-02d3t07.flac

FFP

plf2003-12-02d1t01.flac:7327f6b7dac2520bd86c57dac28604ca
plf2003-12-02d1t02.flac:e4bb7ddf3ac34b06bbec9c21a29e25a5
plf2003-12-02d1t03.flac:3e65555314661d761962591901960173
plf2003-12-02d1t04.flac:6b6d77e97f32f21cd163401a0a10b0d8
plf2003-12-02d1t05.flac:bdd9ff376d67cef8b25b92bd2607299d
plf2003-12-02d1t06.flac:1cadc4421906bbbbd46c4bfc518b0304
plf2003-12-02d2t01.flac:f94faa9e95f1512752a698b9a546b7ca
plf2003-12-02d2t02.flac:6b43c663d6ca76976f3c7d13284fab8b
plf2003-12-02d2t03.flac:4307b026a52d14671853d13ab3cc9d12
plf2003-12-02d2t04.flac:a98c651c8281d091b109af28cdf1a268
plf2003-12-02d2t05.flac:2952ae853294adce31672a933af631d0
plf2003-12-02d2t06.flac:4249870e688c51c5f682223f7dec8038
plf2003-12-02d2t07.flac:96fadff3416a41966d221304473617a8
plf2003-12-02d3t01.flac:e505c8862a6bce2f4437543e95eeb5f7
plf2003-12-02d3t02.flac:b899cb71944cdcdefd27fa52aa0b9413
plf2003-12-02d3t03.flac:02374ff1896dc000f08e05d0ff08c802
plf2003-12-02d3t04.flac:c779de4c579eb6e397bc83da8d33e42d
plf2003-12-02d3t05.flac:e0e25368f2b3a03ab4eab67e53e724f6
plf2003-12-02d3t06.flac:28c69c0171d43982677054c28b45fe08
plf2003-12-02d3t07.flac:538850d72a8f868fa457bd200791fce7

SHNTOOL

    length     expanded size   cdr  WAVE problems filename
     0:54.28        9591500    ---   --   ---xx   plf2003-12-02d1t01.flac
    16:20.27      172935548    ---   --   ---xx   plf2003-12-02d1t02.flac
    15:17.62      161904668    ---   --   ---xx   plf2003-12-02d1t03.flac
     8:51.41       93764876    ---   --   ---xx   plf2003-12-02d1t04.flac
     6:56.39       73474172    ---   --   ---xx   plf2003-12-02d1t05.flac
    14:46.30      156361004    ---   --   ---xx   plf2003-12-02d1t06.flac
    12:29.55      132253004    ---   --   ---xx   plf2003-12-02d2t01.flac
     5:26.07       57522908    ---   --   ---xx   plf2003-12-02d2t02.flac
     6:26.36       68175116    ---   --   ---xx   plf2003-12-02d2t03.flac
     1:05.23       11520140    ---   --   ---xx   plf2003-12-02d2t04.flac
    13:14.65      140214524    ---   --   ---xx   plf2003-12-02d2t05.flac
     8:15.66       87473276    ---   --   ---xx   plf2003-12-02d2t06.flac
    14:00.13      148206620    ---   --   ---xx   plf2003-12-02d2t07.flac
    17:33.12      185777468    ---   --   ---xx   plf2003-12-02d3t01.flac
    13:18.31      140840156    ---   --   ---xx   plf2003-12-02d3t02.flac
     8:27.72       89604188    ---   --   ---xx   plf2003-12-02d3t03.flac
     8:50.51       93611996    ---   --   ---xx   plf2003-12-02d3t04.flac
     9:47.10      103570364    ---   --   ---xx   plf2003-12-02d3t05.flac
     4:28.03       47282300    ---   --   ---xx   plf2003-12-02d3t06.flac
     6:33.41       69421676    ---   --   ---xx   plf2003-12-02d3t07.flac
   193:04.37     2043505504 B                     (totals for 20 files, 0.5688 overall compression ratio)

There were no sector boundary errors.
Show Checksums
flac-md5
d49f1ee0560ac2ee82e2a2ebc46d69e9 *plf2003-12-02d1t01.flac
729d66510469140d6729da530c34345e *plf2003-12-02d1t02.flac
90b8a7ab4259962a001eafe7985f3178 *plf2003-12-02d1t03.flac
ac61758eef1f4ea4e370f69c11104eef *plf2003-12-02d1t04.flac
10738784154d5ca42866aa76061c9de5 *plf2003-12-02d1t05.flac
5e48f823fd2e2aa454012ba8ecf9145d *plf2003-12-02d1t06.flac
a5ad1d876e13f013b412a7c1440ebb8c *plf2003-12-02d2t01.flac
9d5ebe91deac59e3b12a4ff6a1d13801 *plf2003-12-02d2t02.flac
67cba727698cd428e632101629fa64ba *plf2003-12-02d2t03.flac
48b8ff1e05059a590f980a682a2b828b *plf2003-12-02d2t04.flac
7b5f3f4f5f4bbd197ce78512c4a45b46 *plf2003-12-02d2t05.flac
a8a6cd7eb004e4f5eece149419f0be1b *plf2003-12-02d2t06.flac
0a437a2fb8fb90ec8ad33b81b559c28c *plf2003-12-02d2t07.flac
748b673f7ebe0d567502e77b8e20dbc1 *plf2003-12-02d3t01.flac
6490ebaee377242ec0a2d79a679eb966 *plf2003-12-02d3t02.flac
18ea775b648036c50af9171e610bf256 *plf2003-12-02d3t03.flac
60e1254f7fb4c3eef59470ae6ddf32c0 *plf2003-12-02d3t04.flac
057be5ffabe5bf544bb08a9db131e6d4 *plf2003-12-02d3t05.flac
107e3f3639267a18db598c10bd068796 *plf2003-12-02d3t06.flac
155683b887e8e60057808beb55887c33 *plf2003-12-02d3t07.flac
ffp
plf2003-12-02d1t01.flac:7327f6b7dac2520bd86c57dac28604ca
plf2003-12-02d1t02.flac:e4bb7ddf3ac34b06bbec9c21a29e25a5
plf2003-12-02d1t03.flac:3e65555314661d761962591901960173
plf2003-12-02d1t04.flac:6b6d77e97f32f21cd163401a0a10b0d8
plf2003-12-02d1t05.flac:bdd9ff376d67cef8b25b92bd2607299d
plf2003-12-02d1t06.flac:1cadc4421906bbbbd46c4bfc518b0304
plf2003-12-02d2t01.flac:f94faa9e95f1512752a698b9a546b7ca
plf2003-12-02d2t02.flac:6b43c663d6ca76976f3c7d13284fab8b
plf2003-12-02d2t03.flac:4307b026a52d14671853d13ab3cc9d12
plf2003-12-02d2t04.flac:a98c651c8281d091b109af28cdf1a268
plf2003-12-02d2t05.flac:2952ae853294adce31672a933af631d0
plf2003-12-02d2t06.flac:4249870e688c51c5f682223f7dec8038
plf2003-12-02d2t07.flac:96fadff3416a41966d221304473617a8
plf2003-12-02d3t01.flac:e505c8862a6bce2f4437543e95eeb5f7
plf2003-12-02d3t02.flac:b899cb71944cdcdefd27fa52aa0b9413
plf2003-12-02d3t03.flac:02374ff1896dc000f08e05d0ff08c802
plf2003-12-02d3t04.flac:c779de4c579eb6e397bc83da8d33e42d
plf2003-12-02d3t05.flac:e0e25368f2b3a03ab4eab67e53e724f6
plf2003-12-02d3t06.flac:28c69c0171d43982677054c28b45fe08
plf2003-12-02d3t07.flac:538850d72a8f868fa457bd200791fce7

Comments
Add Comment
Other Sources (comments)
Loge front center A 104/105... (0) schoeps mk4 (ortf, clamped... (0)
Date User Comment