Browse Collections Artists Sources   Search Dates

Add Show    List Management    Help


Grateful Dead 09/04/79
Madison Square Garden, New York, NY
Comments Add Comment    Source Collectors    Add to Collection    Add to Want List    History
Source # 79747 Other Sources
Entered by Matt Vernon
Checksums ffp , flac-md5
Disc Counts 2 / 3
Media Size
Date Circulated
Date Added
11/06/2006
11/07/2006
Source Summary flac16; Recording Info: SBD -> Master Cassette -> Reel -> Dat -> PCM -> CD Transfer Info: CD -> Samplitude Professional v8.01 -> FLAC All Transfers and Mastering By Charlie Miller 
  Archive
Source Information - Download Text | Download Zip
Grateful Dead - September 4, 1979
Madison Square Garden - New York, NY

Recording Info:
SBD -> Master Cassette -> Reel -> Dat -> PCM -> CD

Transfer Info:
CD -> Samplitude Professional v8.01 -> FLAC
(3 Discs Audio / 2 Discs FLAC)

All Transfers and Mastering By Charlie Miller
[email protected]
November 4, 2006

Patch Info:
(FOB/14th Row) NAK 700>Cassette Master>FC/DD 2496>CDR supplies:
Jack Straw (0:00 - 0:22)
Minglewood Blues (3:18 - 6:57)
Tuning (complete track)
China Cat Sunflower (0:00 - 1:07)
Looks Like Rain (complete track)
Wharf Rat (2:48 - 3:27)

Notes:
-- 2nd Set is seamless
-- It's not perfect, but it's better
-- This is a crappy sbd with lots of pitch issues

Set 1:
d1t01 - Jack Straw
d1t02 - Sugaree
d1t03 - Me And My Uncle ->
d1t04 - Big River
d1t05 - Candyman
d1t06 - New Minglewood Blues
d1t07 - Tennessee Jed
d1t08 - Lost Sailor ->
d1t09 - Saint Of Circumstance ->
d1t10 - Deal

Set 2:
d2t01 - Tuning
d2t02 - China Cat Sunflower ->
d2t03 - I Know You Rider
d2t04 - Looks Like Rain
d2t05 - He's Gone ->
d2t06 - Drums ->
d3t01 - Space ->
d3t02 - Wharf Rat ->
d3t03 - Around And Around

Encore:
d3t04 - Shakedown Street


SHNTOOL OUTPUT:
    length     expanded size   cdr  WAVE problems filename
     6:12.52       65743148    ---   --   -----   gd79-09-04d1t01.wav
    14:35.40      154444124    ---   --   -----   gd79-09-04d1t02.wav
     2:59.11       31601516    ---   --   -----   gd79-09-04d1t03.wav
     6:12.48       65733740    ---   --   -----   gd79-09-04d1t04.wav
     6:45.29       71510252    ---   --   -----   gd79-09-04d1t05.wav
     7:09.46       75783836    ---   --   -----   gd79-09-04d1t06.wav
     8:57.71       94893836    ---   --   -----   gd79-09-04d1t07.wav
     7:13.05       76393004    ---   --   -----   gd79-09-04d1t08.wav
     6:17.74       66676892    ---   --   -----   gd79-09-04d1t09.wav
     5:41.42       60251228    ---   --   -----   gd79-09-04d1t10.wav
     1:11.68       12684380    ---   --   -----   gd79-09-04d2t01.wav
     8:15.33       87395660    ---   --   -----   gd79-09-04d2t02.wav
     7:04.61       74937116    ---   --   -----   gd79-09-04d2t03.wav
     8:50.58       93628460    ---   --   -----   gd79-09-04d2t04.wav
    20:23.42      215836028    ---   --   -----   gd79-09-04d2t05.wav
    13:03.23      138175340    ---   --   -----   gd79-09-04d2t06.wav
     7:49.28       82797500    ---   --   -----   gd79-09-04d3t01.wav
    11:24.70      120822284    ---   --   -----   gd79-09-04d3t02.wav
     8:05.33       85631660    ---   --   -----   gd79-09-04d3t03.wav
    11:32.20      122115884    ---   --   -----   gd79-09-04d3t04.wav
   169:47.29     1797055888 B                     (totals for 20 files)
Show Checksums
ffp
gd79-09-04d1t01.flac:aa58b1f153839224fce03e44d11812eb
gd79-09-04d1t02.flac:9acd263fa21281193b1d2915f248ac7f
gd79-09-04d1t03.flac:9bb1a0506949acd0a5e36796a2eced24
gd79-09-04d1t04.flac:9dc9419b1425e755c7692e14b6f7064f
gd79-09-04d1t05.flac:33946bd86c3e657993b53fab31c77d7e
gd79-09-04d1t06.flac:484b6f64c1495e8b3fd8e5707d1a6a65
gd79-09-04d1t07.flac:086e4abfd141e58d0ede7f2f160a9f0a
gd79-09-04d1t08.flac:3051ab25ec5aa29f6a58a7ab15ae4f37
gd79-09-04d1t09.flac:acb2a943591e5d6aa8e5971a0731b350
gd79-09-04d1t10.flac:02f7fdda5a007d81622a7a3d1aa66e6b
gd79-09-04d2t01.flac:1fd1698108e0ac8d5c2c5dc5bdf025e9
gd79-09-04d2t02.flac:ab6e6849dd23e22db864b4f072755a53
gd79-09-04d2t03.flac:725b19492d4170b8185481d358b14677
gd79-09-04d2t04.flac:85037a635e9c04476e4eceb3e13fbd6d
gd79-09-04d2t05.flac:59a1c8d1ddbd51d8eda8d8cafbe5bde7
gd79-09-04d2t06.flac:94501deb9ebaaffa44efec0cb3b0081a
gd79-09-04d3t01.flac:7521fe48fe5a676d469ec86a63d7c399
gd79-09-04d3t02.flac:bafc638bd2e14c61751f00f51c5d9cd9
gd79-09-04d3t03.flac:d277e7b11634a3fde81715ec1e17f762
gd79-09-04d3t04.flac:dd39950f1b9191b8b2ac633edecae798
flac-md5
c96538c90b2e3a389d64527a64564bf8 *gd79-09-04d1t01.flac
6e33e2008ec23cb764d3e7593cd506ae *gd79-09-04d1t02.flac
df145bfcc274741e5e476e355b702146 *gd79-09-04d1t03.flac
3b5a5db5f202000f3adff99d8d7796eb *gd79-09-04d1t04.flac
bee230e01506f0881bb8e79dfa9c49dc *gd79-09-04d1t05.flac
da43df0836d739d03fe7de9309585908 *gd79-09-04d1t06.flac
72a345674fccf48eba77a17a4051fccc *gd79-09-04d1t07.flac
227c1a7820807aca5bc8578aea4e319c *gd79-09-04d1t08.flac
927d897f54ec631a3016ee3e39c5560e *gd79-09-04d1t09.flac
960df88d536f771025a19137fd65fc1e *gd79-09-04d1t10.flac
d8005c1674221fffba6f13a88a029f64 *gd79-09-04d2t01.flac
a6aa3f8a88b425e5a6c2de14f391629d *gd79-09-04d2t02.flac
0d512e8c18670a9aee9cf334e6811d2f *gd79-09-04d2t03.flac
cc50b86f75e6cdc67099ccf3a3687d70 *gd79-09-04d2t04.flac
92dd78b27ddfb2c707ded22661493580 *gd79-09-04d2t05.flac
ea857668620e93ba951d78bf8859eae9 *gd79-09-04d2t06.flac
2619afeccf6d9435fccd9ca1910a6b9a *gd79-09-04d3t01.flac
3d40276b7cc3fd6dc76a39b871ca6196 *gd79-09-04d3t02.flac
53780da2c6bc8681795dc9dc412a825d *gd79-09-04d3t03.flac
54d697a624189470ca9959a17abde614 *gd79-09-04d3t04.flac

Comments
Add Comment
Other Sources (comments)
Recording by Barry... (0) Sources: Primary Source:... (0) flac16; Nakamichi... (0) flac24; Set 1... (0)
Date User Comment