Browse Collections Artists Sources   Search Dates

Add Show    List Management    Help


Grateful Dead 09/05/79
Madison Square Garden, New York, NY
Comments Add Comment    Source Collectors    Add to Collection    Add to Want List    History
Source # 79748 Other Sources
Entered by Matt Vernon
Checksums ffp , flac-md5
Disc Counts 2 / 3
Media Size
Date Circulated
Date Added
11/06/2006
11/07/2006
Source Summary flac16; Recording Info: SBD -> Master Cassette -> Reel -> Dat -> PCM -> CD Transfer Info: CD -> Samplitude Professional v8.01 -> FLAC All Transfers and Mastering By Charlie Miller 
  Archive
Source Information - Download Text | Download Zip
Grateful Dead - September 5, 1979
Madison Square Garden - New York, NY

Recording Info:
SBD -> Master Cassette -> Reel -> Dat -> PCM -> CD

Transfer Info:
CD -> Samplitude Professional v8.01 -> FLAC
(3 Discs Audio / 2 Discs FLAC)

All Transfers and Mastering By Charlie Miller
[email protected]
November 5, 2006

Patch Info:
(FOB/11th Row) NAK 700>Cassette Master>FC/DD 2496>CDR supplies:
Loser (complete track)
Promised Land (complete track)
Tuning (complete track)
Scarlet Begonias (0:00 - 0:27)
Estimated Prophet (4:40 - 7:16)
Eyes Of The World (7:27 - 8:18)
Black Peter (4:36 - 5:01)
Bertha (3:01 - 5:03)

Notes:
-- 2nd Set is seamless
-- It's not perfect, but it's better
-- This is a crappy sbd with lots of pitch issues

Set 1:
d1t01 - Mississippi Half-Step Uptown Toodeloo ->
d1t02 - Franklin's Tower
d1t03 - Mama Tried ->
d1t04 - Mexicali Blues
d1t05 - Peggy-O
d1t06 - Cassidy
d1t07 - Loser
d1t08 - The Promised Land

Set 2:
d2t01 - Tuning
d2t02 - Scarlet Begonias ->
d2t03 - Fire On The Mountain
d2t04 - Estimated Prophet ->
d2t05 - Eyes Of The World ->
d2t06 - Drums ->
d3t01 - Space ->
d3t02 - Black Peter ->
d3t03 - I Need A Miracle ->
d3t04 - Bertha ->
d3t05 - Good Lovin'

Encore:
d3t06 - U.S. Blues


SHNTOOL OUTPUT:
    length     expanded size   cdr  WAVE problems filename
     8:01.66       85003676    ---   --   -----   gd79-09-05d1t01.wav
    10:17.70      109003484    ---   --   -----   gd79-09-05d1t02.wav
     2:31.41       26732876    ---   --   -----   gd79-09-05d1t03.wav
     4:37.28       48928700    ---   --   -----   gd79-09-05d1t04.wav
     6:57.65       73711724    ---   --   -----   gd79-09-05d1t05.wav
     5:24.50       57271244    ---   --   -----   gd79-09-05d1t06.wav
     9:32.51      101020796    ---   --   -----   gd79-09-05d1t07.wav
     4:36.04       48695852    ---   --   -----   gd79-09-05d1t08.wav
     1:27.06       15360956    ---   --   -----   gd79-09-05d2t01.wav
    12:33.43      132930380    ---   --   -----   gd79-09-05d2t02.wav
    10:49.03      114490700    ---   --   -----   gd79-09-05d2t03.wav
    12:39.11      133913516    ---   --   -----   gd79-09-05d2t04.wav
    11:57.31      126551756    ---   --   -----   gd79-09-05d2t05.wav
    10:22.24      109777292    ---   --   -----   gd79-09-05d2t06.wav
    12:50.63      135976220    ---   --   -----   gd79-09-05d3t01.wav
    10:56.46      115826636    ---   --   -----   gd79-09-05d3t03.wav
     5:21.25       56683244    ---   --   -----   gd79-09-05d3t04.wav
     6:14.43       66074780    ---   --   -----   gd79-09-05d3t05.wav
     7:07.29       75391052    ---   --   -----   gd79-09-05d3t06.wav
     5:26.54       57633452    ---   --   -----   gd79-09-05d3t07.wav
   159:46.03     1690978336 B                     (totals for 20 files)
Show Checksums
ffp
gd79-09-05d1t01.flac:28aaab3689265d2e13a97549320ff327
gd79-09-05d1t02.flac:c3985a31cac3255297cca5c3db1ee7a5
gd79-09-05d1t03.flac:746f459afe0ae37269272e171383fb74
gd79-09-05d1t04.flac:b8f832d1e849f4c55fd44f87c538a198
gd79-09-05d1t05.flac:c8f41b66ddad4fde4379fe36be5cc1bd
gd79-09-05d1t06.flac:d0fe16af2c7bc9fa9e573191967c5633
gd79-09-05d1t07.flac:dbb904f16c42db6b90911e1b281205bd
gd79-09-05d1t08.flac:c801a9fd09abf934c618885b8f4d6a54
gd79-09-05d2t01.flac:bd5f2da5a0143f268c5e8685ff4958c5
gd79-09-05d2t02.flac:01b208f28336a36a7c4ce32c8031e9b5
gd79-09-05d2t03.flac:b5c605d70ba3514d147257aebadb1ea4
gd79-09-05d2t04.flac:3a3507e8357f15b4444e5c0048e33a82
gd79-09-05d2t05.flac:07ee4ebfec62f9447bce0af33848341e
gd79-09-05d2t06.flac:6b0eb4c9880548cccfe51dda651f011c
gd79-09-05d3t01.flac:560bcb30bbbc2c0cc56828a0ec61bd61
gd79-09-05d3t02.flac:3cbc1e86199894ef81c1c364d1db7f42
gd79-09-05d3t03.flac:93ef209b108ae3b40dbf89c271729c37
gd79-09-05d3t04.flac:616eceb374c62167ab3db0a66177e8f3
gd79-09-05d3t05.flac:15c33195181721e24fd8510ed71da23e
gd79-09-05d3t06.flac:c89b0ec457b87e50efd3435f11a88cf9
flac-md5
9ebef1597c95108e35d23f971261ea2c *gd79-09-05d1t01.flac
020c88771d7bdb111aaf1dec73e4fae7 *gd79-09-05d1t02.flac
dbe735892d6a73f30e6e022d3ecb8321 *gd79-09-05d1t03.flac
2b18f0e47e25614f0895b017f43d71ee *gd79-09-05d1t04.flac
41d1f296220fb6411fbe12d725da01bc *gd79-09-05d1t05.flac
b7a05b07e4b37ff37b0f891f4241856e *gd79-09-05d1t06.flac
7e7d1e8043416b44d5eb6ad74bf2d4de *gd79-09-05d1t07.flac
41c5749e049741319693973a7bb90166 *gd79-09-05d1t08.flac
0d727f53507124d52f7b0c421fb9f671 *gd79-09-05d2t01.flac
9f2db6962118236411e12dd21d5a245f *gd79-09-05d2t02.flac
612e88a871a56cc9a23d65d39bce91ba *gd79-09-05d2t03.flac
d136a66fb47f2fe90d3c070a2940c7e1 *gd79-09-05d2t04.flac
c4ba15e402ea465fceaa6e4428ab7529 *gd79-09-05d2t05.flac
c21ca50adcb593123d511d3e999ac180 *gd79-09-05d2t06.flac
17263ca9eaebdbbf75ed90313a568f7e *gd79-09-05d3t01.flac
85730b330f888dd962fe398d29a0c4ef *gd79-09-05d3t02.flac
55552a9e6f54f5524757a80493222715 *gd79-09-05d3t03.flac
02ed7bb5483b44a769f2fc90666e5dfb *gd79-09-05d3t04.flac
853aed52722d226af534ed93ce15d981 *gd79-09-05d3t05.flac
78bb0ae22db08c4d002101333e98003c *gd79-09-05d3t06.flac

Comments
Add Comment
Other Sources (comments)
Recording by Barry... (0) Recording by Barry... (0) Sources: Primary... (1) flac16; Matrix by... (0) flac16; Matrix by... (0)
Date User Comment