Browse Collections Artists Sources   Search Dates

Add Show    List Management    Help


Drive-By Truckers 10/27/06
New Daisy Theater, Memphis, TN
Comments Add Comment    Source Collectors    Add to Collection    Add to Want List    History
Source # 79820 Other Sources
Entered by
Checksums ffp
Disc Counts 0 / 0
Media Size
Date Circulated
Date Added
10/31/06
11/11/2006
Source Summary [16 bit] Neumann ak40 > lc3 > km100 > Lunatec v3 > SD 722 (Stacey Ochs) 
Source Information - Download Text | Download Zip
Drive-By Truckers
10-27-2006
New Daisy Theater
Memphis, TN


***16 bit Recording***


Source: Neumann km140~>lc3~>km100~>v3~>722 @ (24/96)
Location: FOB/DFC/DIN
Transfer: 722~>cdwave~>wavelab5~>flac level 6
Taped, Transferred & Seeded by Stacey Ochs

Disc One:
01: House Music/ Intro
02: Lookout Mountain
03: 72
04: Ain't Never Gonna Change
05: Ronnie & Neil
06: One of These Days
07: February 14th
08: Goddamn Lonely Love
09: The Night G.G. Allin Came to Town
10: Shut Up and Get On the Plane
11: Do It Yourself
12: Dress Blues +
13: The Living Bubba
14: Uncle Frank
15: Sinkhole

Disc Two:
01: The Day John Henry Died
02: Wednesday *
03: Gravity's Gone
04: Patterson banter
05: Glad and Sorry &
06: Bulldozers and Dirt
07: 18 Wheels of Love
08: Marry Me
09: Puttin' People on the Moon

encore:

10: Outfit ^
11: Women Without Whiskey ^
12: Let There Be Rock ^
13: Buttholeville @
14: People Who Died @

Notes:
The Drams opened

+ Jason on acoustic guitar
* No John Neff
& Faces cover; Brent Best on guitar and Chad Stockslager on keys
^ Brent Best & Chad Stockslager
@ Brent Best on guitar, John Neff on guitar



shntool:
    length     expanded size   cdr  WAVE problems filename
     2:26.14       25787372    ---   --   ---xx   DBT 10-27-06 D1 T1.flac
     4:14.20       44852684    ---   --   ---xx   DBT 10-27-06 D1 T10.flac
     4:23.64       46543772    ---   --   ---xx   DBT 10-27-06 D1 T11.flac
     3:58.10       42006764    ---   --   ---xx   DBT 10-27-06 D1 T12.flac
     6:23.06       67575356    ---   --   ---xx   DBT 10-27-06 D1 T13.flac
     5:09.04       54517052    ---   --   ---xx   DBT 10-27-06 D1 T14.flac
     3:40.10       38831564    ---   --   ---xx   DBT 10-27-06 D1 T15.flac
     5:00.67       53077628    ---   --   ---xx   DBT 10-27-06 D1 T2.flac
     5:45.70       61022684    ---   --   ---xx   DBT 10-27-06 D1 T3.flac
     5:28.05       57871004    ---   --   ---xx   DBT 10-27-06 D1 T4.flac
     5:27.19       57727532    ---   --   ---xx   DBT 10-27-06 D1 T5.flac
     5:18.59       56234012    ---   --   ---xx   DBT 10-27-06 D1 T6.flac
     4:33.02       48161948    ---   --   ---xx   DBT 10-27-06 D1 T7.flac
     5:35.20       59141084    ---   --   ---xx   DBT 10-27-06 D1 T8.flac
     5:17.60       56059964    ---   --   ---xx   DBT 10-27-06 D1 T9.flac
     4:28.49       47390492    ---   --   ---xx   DBT 10-27-06 D2 T1.flac
     4:31.14       47837372    ---   --   ---xx   DBT 10-27-06 D2 T10.flac
     4:27.48       47211740    ---   --   ---xx   DBT 10-27-06 D2 T11.flac
     6:15.40       66244124    ---   --   ---xx   DBT 10-27-06 D2 T12.flac
     7:09.59       75814412    ---   --   ---xx   DBT 10-27-06 D2 T13.flac
     5:43.04       60514652    ---   --   ---xx   DBT 10-27-06 D2 T14.flac
     4:42.28       49810700    ---   --   ---xx   DBT 10-27-06 D2 T2.flac
     3:32.16       37434476    ---   --   ---xx   DBT 10-27-06 D2 T3.flac
     1:45.54       18649052    ---   --   ---xx   DBT 10-27-06 D2 T4.flac
     3:36.67       38260028    ---   --   ---xx   DBT 10-27-06 D2 T5.flac
     4:40.08       49410860    ---   --   ---xx   DBT 10-27-06 D2 T6.flac
     8:21.01       88378796    ---   --   ---xx   DBT 10-27-06 D2 T7.flac
     5:46.16       61072076    ---   --   ---xx   DBT 10-27-06 D2 T8.flac
     8:34.64       90820172    ---   --   ---xx   DBT 10-27-06 D2 T9.flac
   146:16.73     1548259372 B                     (totals for 29 files, 0.6021 overall compression ratio)

There were no sector boundary errors.
Show Checksums
ffp
DBT 10-27-06 D2 T7.flac:8065f2853fa8f4aea3f07963a65ce858
DBT 10-27-06 D2 T8.flac:0b8a12310b2f7a1e7a6935b7bcd53ebe
DBT 10-27-06 D2 T9.flac:469eb05d699c48d60d9db6faf9d98634
DBT 10-27-06 D2 T10.flac:06607371f03b4bdec4aac81d9f00c419
DBT 10-27-06 D2 T11.flac:fede7a4c4f4b12bb2ee4435d2401bfd1
DBT 10-27-06 D2 T12.flac:0a8406d2b0cf28a38bc29a94d27ba670
DBT 10-27-06 D2 T13.flac:74ce31a350785718f5c005c3e76455d7
DBT 10-27-06 D2 T14.flac:972e789a2ad67d6e8bb3f7e7cd6291bb
DBT 10-27-06 D1 T1.flac:65480b3cc230b2b78c89bca547adaf8f
DBT 10-27-06 D1 T2.flac:45ef1bc09d90e0642b619e408d1d1d7f
DBT 10-27-06 D1 T3.flac:14c08f80a5429b7ec872c68863045ff0
DBT 10-27-06 D1 T4.flac:ff31e07a360bc8b8c41edfd1aa03893f
DBT 10-27-06 D1 T5.flac:7198428e7800f7e4c3d8337759d4fc80
DBT 10-27-06 D1 T6.flac:f27b447dc29b00947cee537afea7c047
DBT 10-27-06 D1 T7.flac:3bd803c4db915c30a264139a1d757bcb
DBT 10-27-06 D1 T8.flac:9eccbc37e6c8a5c5ae2cde2dc96d983c
DBT 10-27-06 D1 T9.flac:2aab4df1a0c0bff09ebe3f974214318a
DBT 10-27-06 D1 T10.flac:b5d4d96a32af563d7ba0fe56a9cce1b2
DBT 10-27-06 D1 T11.flac:070e5bbe13b982036fbed308a08ccb41
DBT 10-27-06 D1 T12.flac:9e3f88afc26417e09da269af143d3601
DBT 10-27-06 D1 T13.flac:e5c17adcd86580d19b41345f5d61fabf
DBT 10-27-06 D1 T14.flac:1f5337a60861dc99bb98ad451d4ae37c
DBT 10-27-06 D1 T15.flac:55f0de80554eb4a3d63377ec5a4f7646
DBT 10-27-06 D2 T1.flac:2c82a99a7048f56adab3d202447f6cf3
DBT 10-27-06 D2 T2.flac:1ad0e5874c2e8abcb9e918b0cde22051
DBT 10-27-06 D2 T3.flac:9a4571d71adc2e8aa2c69a1bdecb9d97
DBT 10-27-06 D2 T4.flac:916fc3d84fd3b10ba351a4078145c834
DBT 10-27-06 D2 T5.flac:40a019f3ea4aac7886ed77712405d36d
DBT 10-27-06 D2 T6.flac:9e0a191a1c5136542046bb6b225894ef

Comments
Add Comment
Other Sources (comments)
[16 Bit] AKG c414b xls/ST >... (0) Schoeps CCM4L > V3 > DA-P1... (0)
Date User Comment