Browse Collections Artists Sources   Search Dates

Add Show    List Management    Help


Grateful Dead 03/30/89
Greensboro Coliseum, Greensboro, NC
Comments Add Comment    Source Collectors    Add to Collection    Add to Want List    History
Source # 79836 Other Sources
Entered by Matt Vernon
Checksums ffp , flac-md5
Disc Counts 1 / 1
Media Size
Date Circulated
Date Added
11/11/2006
11/12/2006
Source Summary flac16; Set 1 only: Recording Info: SBD -> Dat (44.1k) Transfer Info: Dat (Sony D8) -> Samplitude Professional v7.02 -> FLAC All Transfers and Mastering By Charlie Miller 
  Archive
Source Information - Download Text | Download Zip
Grateful Dead - March 30, 1989
Greensboro Coliseum - Greensboro, NC
**SET 1 ONLY**

Recording Info:
SBD -> Dat (44.1k)

Transfer Info:
Dat (Sony D8) -> Samplitude Professional v7.02 -> FLAC
(1 Disc Audio / 1 Disc FLAC)

All Transfers and Mastering By Charlie Miller
[email protected]
November 10, 2006

Set 1:
d1t01 - Tuning
d1t02 - Bertha ->
d1t03 - Jack Straw
d1t04 - Row Jimmy
d1t05 - Blow Away
d1t06 - When I Paint My Masterpiece
d1t07 - Bird Song ->
d1t08 - The Promised Land


SHNTOOL OUTPUT:
    length     expanded size   cdr  WAVE problems filename
     1:19.28       14001500    ---   --   -----   gd89-03-31d1t01.wav
     6:40.18       70602380    ---   --   -----   gd89-03-31d1t02.wav
     8:19.49       88138892    ---   --   -----   gd89-03-31d1t03.wav
    13:02.31      138017756    ---   --   -----   gd89-03-31d1t04.wav
     8:24.63       89053820    ---   --   -----   gd89-03-31d1t05.wav
     6:24.25       67796444    ---   --   -----   gd89-03-31d1t06.wav
    11:54.51      126069596    ---   --   -----   gd89-03-31d1t07.wav
     4:42.56       49876556    ---   --   -----   gd89-03-31d1t08.wav
    60:48.21      643556944 B                     (totals for 8 files)
Show Checksums
ffp
gd89-03-31d1t01.flac:e48355b630a682d9b3fe279ee484879c
gd89-03-31d1t02.flac:89ca190aebfd5e47923a904073a420c6
gd89-03-31d1t03.flac:1033c3b19da70fad652f9c436026b213
gd89-03-31d1t04.flac:69b39edab4d963a4b8b10879f35a14e5
gd89-03-31d1t05.flac:462392ccf9561ab8112bf9f2ce0ac82a
gd89-03-31d1t06.flac:7b7154166a280737bae7504b2fa3d179
gd89-03-31d1t07.flac:350454cb5c712efddec4804412115154
gd89-03-31d1t08.flac:a96e444dcfa88137b76a0921cee0f832
flac-md5
faf04168fb1a5699676fb72fefbbe649 *gd89-03-31d1t01.flac
b7d8c37a7e3dbb60f98017944305bcbf *gd89-03-31d1t02.flac
4970e0090e76ed7de8b47449f5e731c4 *gd89-03-31d1t03.flac
d594f01ba59d8efc34156c8a00aedab0 *gd89-03-31d1t04.flac
3ba59dfc4410407d7aae587029dfd448 *gd89-03-31d1t05.flac
694432b0b1af224edd5ddd3905cb29d4 *gd89-03-31d1t06.flac
9649f173db9f5ed7ca78ac2498098741 *gd89-03-31d1t07.flac
8bb5e62ee953c702d3b52116a9cb2f0b *gd89-03-31d1t08.flac

Comments
Add Comment
Other Sources (comments)
Mark Horvath FOB Senn.... (0) flac16; Recording... (0) flac24; Master... (0) flac16; Master... (0) flac16; Source: AKG... (0) flac16/48kHz;... (0) flac16; Source Info:... (0)
Date User Comment
11/12/2006 skbarchives I accidently dated the files for the 31st. They should be for the 30th.

cm