Browse Collections Artists Sources   Search Dates

Add Show    List Management    Help


Phix 09/10/02
Music Farm, Charleston, SC
Comments Add Comment    Source Collectors    Add to Collection    Add to Want List    History
Source # 80005 Other Sources
Entered by SailorSaint
Checksums ffp
Disc Counts 2 / 3
Media Size
Date Circulated
Date Added

11/19/2006
Source Summary AKG 481 > Denecke PS-2 > Oade mod-SBM-1 > DA-P1 @ 44.1 KHz 
  Archive
Source Information - Download Text | Download Zip
Phix
September 10, 2002
Music Farm
Charleston, SC

Source: AKG 481 > Denecke PS-2 > Oade mod-SBM-1 > DA-P1 @ 44.1 KHz
Location: (Set I) next to soundboard; (Set II) fob/dfc/15' from stage
Taped by: BobbyHurley

Transfer: DAT (m) > Sony 59ES > Audiophile 24/96 > Wavelab 5.0 > CDWave > FLAC v.1.7.1 > .flac (6)
Transfer by: BobbyHurley

Disc 1 / Set I

01) Intro
02) Buried Alive
03) Possum
04) Lizards
05) You Enjoy Myself >
06) Lengthwise >
07) Maze
08) Horn >
09) Slave to the Traffic Light
10) Chalkdust Torture
11) Golgi Apparatus

Disc 2 / Set II

01) Wilson
02) Reba >
03) Boogie On Reggae Woman >
04) Timber Ho!
05) Theme from the Bottom
06) Stage Announcements
07) Birds of a Feather

Disc 3 / Set II cont.

01) Esther
02) Julius
03) Crowd
-= Encore =-
04) Fee >
05) Loving Cup
06) Divided Sky

-----------------------------

SHNtool Output
length expanded size cdr WAVE problems filename
0:24.56 4365356 --- -- ---xx phix2002-09-10d1t01.flac
3:02.54 32231852 --- -- ---xx phix2002-09-10d1t02.flac
10:25.31 110322956 --- -- ---xx phix2002-09-10d1t03.flac
11:30.53 121840700 --- -- ---xx phix2002-09-10d1t04.flac
14:54.72 157870988 --- -- ---xx phix2002-09-10d1t05.flac
1:01.43 10861580 --- -- ---xx phix2002-09-10d1t06.flac
10:33.53 111785900 --- -- ---xx phix2002-09-10d1t07.flac
3:36.11 38128316 --- -- ---xx phix2002-09-10d1t08.flac
10:52.56 115144556 --- -- ---xx phix2002-09-10d1t09.flac
7:01.60 74405564 --- -- ---xx phix2002-09-10d1t10.flac
5:15.10 55589564 --- -- ---xx phix2002-09-10d1t11.flac
4:53.68 51845180 --- -- ---xx phix2002-09-10d2t01.flac
11:34.62 122567468 --- -- ---xx phix2002-09-10d2t02.flac
4:07.12 43599068 --- -- ---xx phix2002-09-10d2t03.flac
5:02.30 53343404 --- -- ---xx phix2002-09-10d2t04.flac
8:00.58 84808460 --- -- ---xx phix2002-09-10d2t05.flac
3:33.54 37700252 --- -- ---xx phix2002-09-10d2t06.flac
7:22.52 78091148 --- -- ---xx phix2002-09-10d2t07.flac
9:45.06 103208156 --- -- ---xx phix2002-09-10d3t01.flac
6:50.10 72347564 --- -- ---xx phix2002-09-10d3t02.flac
1:55.54 20413052 --- -- ---xx phix2002-09-10d3t03.flac
5:31.26 58449596 --- -- ---xx phix2002-09-10d3t04.flac
6:33.74 69499292 --- -- ---xx phix2002-09-10d3t05.flac
13:26.50 142296044 --- -- ---xx phix2002-09-10d3t06.flac
167:18.05 1688.69 MB (totals for 24 files, 0.5908 overall compression ratio)

------------------------------

FLAC Fingerprint
phix2002-09-10d1t01.flac:eeffa03b473e0446d18cdb3c65ce1fe5
phix2002-09-10d1t02.flac:dc1dc9c91b6bdb7079a6c64135c92adb
phix2002-09-10d1t03.flac:67ff475c2e0daa9dd61a022c48395742
phix2002-09-10d1t04.flac:212a270888d24887bf2d99d36195234a
phix2002-09-10d1t05.flac:a77c2668bdf37950ae154bf7375f688e
phix2002-09-10d1t06.flac:6fa4ab5176711279bca35336c88d547f
phix2002-09-10d1t07.flac:0f53055a433642d5298a8cbce5797d93
phix2002-09-10d1t08.flac:0729400da151eb6965351e1ba3c573e5
phix2002-09-10d1t09.flac:2e6b6326b59c8d7527cabe5833eb6a86
phix2002-09-10d1t10.flac:656433ace24b92d66306333cbff829ec
phix2002-09-10d1t11.flac:47f486e0b4169f14c1267777d249accb
phix2002-09-10d2t01.flac:fe565c55d33f6ba3d9e62bfac4086381
phix2002-09-10d2t02.flac:908fd35c638961be371a42b294e32162
phix2002-09-10d2t03.flac:00c876b1394fd7d40056eb4a6ef01770
phix2002-09-10d2t04.flac:2b694a27d94498b61bdb1f575283c1cd
phix2002-09-10d2t05.flac:67525e385b14c4479a9b6da1fba309e6
phix2002-09-10d2t06.flac:917b348bb2a6f3527d118fed42a1eec1
phix2002-09-10d2t07.flac:0cd4c9bce8a75a9cfeea79df853042a6
phix2002-09-10d3t01.flac:7844dac5f2c28f3bbfeb4e714e1a41bd
phix2002-09-10d3t02.flac:e5245e244a741ab0cc3f10eb4a226246
phix2002-09-10d3t03.flac:0b2bb107146497827942f49cccb11f2a
phix2002-09-10d3t04.flac:29e5f73ad1f491d77997c6d69606a3df
phix2002-09-10d3t05.flac:eeceaa12e83b87ae0b7723bed9d7fa34
phix2002-09-10d3t06.flac:4787b5de9defba8418c3bb7439264b0b

-------------------------------
Show Checksums
ffp
phix2002-09-10d1t01.flac:eeffa03b473e0446d18cdb3c65ce1fe5
phix2002-09-10d1t02.flac:dc1dc9c91b6bdb7079a6c64135c92adb
phix2002-09-10d1t03.flac:67ff475c2e0daa9dd61a022c48395742
phix2002-09-10d1t04.flac:212a270888d24887bf2d99d36195234a
phix2002-09-10d1t05.flac:a77c2668bdf37950ae154bf7375f688e
phix2002-09-10d1t06.flac:6fa4ab5176711279bca35336c88d547f
phix2002-09-10d1t07.flac:0f53055a433642d5298a8cbce5797d93
phix2002-09-10d1t08.flac:0729400da151eb6965351e1ba3c573e5
phix2002-09-10d1t09.flac:2e6b6326b59c8d7527cabe5833eb6a86
phix2002-09-10d1t10.flac:656433ace24b92d66306333cbff829ec
phix2002-09-10d1t11.flac:47f486e0b4169f14c1267777d249accb
phix2002-09-10d2t01.flac:fe565c55d33f6ba3d9e62bfac4086381
phix2002-09-10d2t02.flac:908fd35c638961be371a42b294e32162
phix2002-09-10d2t03.flac:00c876b1394fd7d40056eb4a6ef01770
phix2002-09-10d2t04.flac:2b694a27d94498b61bdb1f575283c1cd
phix2002-09-10d2t05.flac:67525e385b14c4479a9b6da1fba309e6
phix2002-09-10d2t06.flac:917b348bb2a6f3527d118fed42a1eec1
phix2002-09-10d2t07.flac:0cd4c9bce8a75a9cfeea79df853042a6
phix2002-09-10d3t01.flac:7844dac5f2c28f3bbfeb4e714e1a41bd
phix2002-09-10d3t02.flac:e5245e244a741ab0cc3f10eb4a226246
phix2002-09-10d3t03.flac:0b2bb107146497827942f49cccb11f2a
phix2002-09-10d3t04.flac:29e5f73ad1f491d77997c6d69606a3df
phix2002-09-10d3t05.flac:eeceaa12e83b87ae0b7723bed9d7fa34
phix2002-09-10d3t06.flac:4787b5de9defba8418c3bb7439264b0b

Comments
Add Comment
Date User Comment