Browse Collections Artists Sources   Search Dates

Add Show    List Management    Help


Grateful Dead 06/19/80
West High Auditorium, Anchorage, AK
Comments Add Comment    Source Collectors    Add to Collection    Add to Want List    History
Source # 80127 Other Sources
Entered by Matt Vernon
Checksums ffp , flac-md5
Disc Counts 2 / 2
Media Size
Date Circulated
Date Added
11/22/2006
11/22/2006
Source Summary flac16; Recording Info: SBD -> Cassette Master Transfer Info: Cassette Master -> Sonic Solutions -> SBM2 -> CD Mastering Info: CD -> Samplitude Professional v8.01 -> FLAC; upgrade in circulation 
  Archive
Source Information - Download Text | Download Zip
Grateful Dead - June 19, 1980
West High Auditorium - Anchorage, AK

Recording Info:
SBD -> Cassette Master

Transfer Info:
Cassette Master -> Sonic Solutions -> SBM2 -> CD

Mastering Info:
CD -> Samplitude Professional v8.01 -> FLAC
(2 Discs Audio / 2 Discs FLAC)

Cassette Masters supplied by Richard Hale
Transferred By David Gans
Additional Mastering By Charlie Miller
[email protected]
November 21, 2006

Notes:
-- Encore on end of Set 1 to fit show onto 2 discs
-- Tape flips in Althea and Drums
-- First few notes of Alabama Getaway and China Cat missing
-- Drop out in They Love Each Other removed
-- Lost Sailor tease before Looks Like Rain

Set 1:
d1t01 - Alabama Getaway ->
d1t02 - The Promised Land
d1t03 - They Love Each Other ->
d1t04 - El Paso
d1t05 - Tennessee Jed
d1t06 - Cassidy
d1t07 - Althea ->
d1t08 - Looks Like Rain
d1t09 - Far From Me
d1t10 - The Music Never Stopped

Set 2:
d2t01 - China Cat Sunflower ->
d2t02 - I Know You Rider ->
d2t03 - C C Rider
d2t04 - Peggy-O
d2t05 - Lost Sailor ->
d2t06 - Saint Of Circumstance ->
d2t07 - Drums ->
d2t08 - Space ->
d2t09 - Wharf Rat ->
d2t10 - I Need A Miracle ->
d2t11 - Bertha ->
d2t12 - Good Lovin'

Encore:
d1t11 - U.S. Blues


SHNTOOL OUTPUT:
    length     expanded size   cdr  WAVE problems filename
     4:34.16       48371276    ---   --   -----   gd80-06-19d1t01.wav
     4:52.41       51605276    ---   --   -----   gd80-06-19d1t02.wav
     6:57.07       73575308    ---   --   -----   gd80-06-19d1t03.wav
     6:06.68       64722380    ---   --   -----   gd80-06-19d1t04.wav
    10:05.09      106743212    ---   --   -----   gd80-06-19d1t05.wav
     5:43.44       60608732    ---   --   -----   gd80-06-19d1t06.wav
     7:09.30       75746204    ---   --   -----   gd80-06-19d1t07.wav
     9:24.24       99546092    ---   --   -----   gd80-06-19d1t08.wav
     5:05.32       53877308    ---   --   -----   gd80-06-19d1t09.wav
     8:23.72       88898588    ---   --   -----   gd80-06-19d1t10.wav
     5:03.41       53545676    ---   --   -----   gd80-06-19d1t11.wav
     5:31.30       58459004    ---   --   -----   gd80-06-19d2t01.wav
     5:33.62       58887068    ---   --   -----   gd80-06-19d2t02.wav
     7:47.65       82531724    ---   --   -----   gd80-06-19d2t03.wav
     7:27.62       78996668    ---   --   -----   gd80-06-19d2t04.wav
     6:12.57       65754908    ---   --   -----   gd80-06-19d2t05.wav
     6:03.30       64103804    ---   --   -----   gd80-06-19d2t06.wav
     6:40.15       70595324    ---   --   -----   gd80-06-19d2t07.wav
     5:23.53       57101900    ---   --   -----   gd80-06-19d2t08.wav
    10:11.20      107827484    ---   --   -----   gd80-06-19d2t09.wav
     4:13.05       44641004    ---   --   -----   gd80-06-19d2t10.wav
     6:12.49       65736092    ---   --   -----   gd80-06-19d2t11.wav
     8:16.52       87616748    ---   --   -----   gd80-06-19d2t12.wav
   153:00.59     1619491780 B                     (totals for 23 files)
Show Checksums
ffp
gd80-06-19d1t01.flac:efe316bd29118b8a91943f70e57db74a
gd80-06-19d1t02.flac:1ae350a6c9e80554ee0b7537bd4db66c
gd80-06-19d1t03.flac:11dad61e291d6f029759191a211ffcd4
gd80-06-19d1t04.flac:f41676d4f8bce43a3c2b9b92a73a374f
gd80-06-19d1t05.flac:ead2be88ae4d07009fd2cd02dd2b745d
gd80-06-19d1t06.flac:ec8dc2aba6a610aa0688ba33498ff90a
gd80-06-19d1t07.flac:5840262ad2174e3d91b87d80a1c57aa5
gd80-06-19d1t08.flac:a7471d68e63623703a719bd5f8fde1c1
gd80-06-19d1t09.flac:cd5b51b7b9432917d02530ca0f293fae
gd80-06-19d1t10.flac:ff0c608e3e331e0453b0ba84a4d9d553
gd80-06-19d1t11.flac:22923128a5cf9573e0e8d5fada1fb9cb
gd80-06-19d2t01.flac:d929f303431b3566482e551634d53c8f
gd80-06-19d2t02.flac:e2a45a79ff580fce3d73fe422827b674
gd80-06-19d2t03.flac:39b927debd72f098b6b5522a40cfe974
gd80-06-19d2t04.flac:4af36f2ef4215475e808192318e1b061
gd80-06-19d2t05.flac:b490e9fe4f6ad07548c42b1ed2e6e01c
gd80-06-19d2t06.flac:db800a59b45eeb6f33b52a2549ffdcd5
gd80-06-19d2t07.flac:ebd375ef3283400b32a83863987bbae9
gd80-06-19d2t08.flac:8b9103650331a7636938cf8bbc720ec7
gd80-06-19d2t09.flac:e196e5ba335cbf3be75e1b7201d39eed
gd80-06-19d2t10.flac:feb95abd8f297dc3d910ed9c3d3b35c4
gd80-06-19d2t11.flac:a57a89e027c617f29cada4603276ca26
gd80-06-19d2t12.flac:ddec193f0594ce58c72c033ad0dec033
flac-md5
4de45a140e099c62d062ecc4760e91c8 *gd80-06-19d1t01.flac
01b6584a930e269f9a3d613e86b9e0a0 *gd80-06-19d1t02.flac
a88c1652a744ea1be060e93d298d6027 *gd80-06-19d1t03.flac
45ac08abdc9171d70fd636ba0e8f76f2 *gd80-06-19d1t04.flac
ea9c83764ce8bcba3fa9ade83d1d2eba *gd80-06-19d1t05.flac
d8316dd446192b6da274704cabc95bd2 *gd80-06-19d1t06.flac
de4e182c271edf43695f842ef0f90eda *gd80-06-19d1t07.flac
ac2aa467b1b28e8a8aec63cd67665775 *gd80-06-19d1t08.flac
0cd6eb8ac12bc4c2099ed663a2daae37 *gd80-06-19d1t09.flac
11daa41d30d0f7d84f5a509b42b8a76d *gd80-06-19d1t10.flac
01ffcfd0a09484a75717bce7282c3cf8 *gd80-06-19d1t11.flac
c29a1be8dcbbff4c3866712af5cfc782 *gd80-06-19d2t01.flac
f6d10e2ac5bfd9f76ec5d957da645731 *gd80-06-19d2t02.flac
aa4de6c8c7e768d8fc1f823db5e3aa2d *gd80-06-19d2t03.flac
b990ee92a099b88d89a54524591d468d *gd80-06-19d2t04.flac
763818596db578e0b6210dd45f5a6c7f *gd80-06-19d2t05.flac
ecf6a3a8662fed3cb79e6b58da366048 *gd80-06-19d2t06.flac
a510e70c323ba1ed600d42efe62cd159 *gd80-06-19d2t07.flac
6604e7bd0807c676f617b63eca263400 *gd80-06-19d2t08.flac
62135da3746406ec6783cc0ad83e7c34 *gd80-06-19d2t09.flac
25034b62f1d6dbf708c0c6ea0364ad1a *gd80-06-19d2t10.flac
dcfe6f08b20334c8e3060d249a176238 *gd80-06-19d2t11.flac
ff4fc95922260ca0e3044f27444ef22b *gd80-06-19d2t12.flac

Comments
Add Comment
Other Sources (comments)
SBD>MC>??>DAT>CDR; via paul... (4) flac 16; Source: SBD... (0) flac16; Recorded by... (0) flac16;Recording... (0)
Date User Comment