Browse Collections Artists Sources   Search Dates

Add Show    List Management    Help


Grateful Dead 04/15/89
The Mecca, Milwaukee, WI
Comments Add Comment    Source Collectors    Add to Collection    Add to Want List    History
Source # 80277 Other Sources
Entered by Matt Vernon
Checksums ffp , flac-md5
Disc Counts 2 / 2
Media Size
Date Circulated
Date Added
11/26/06
11/25/2006
Source Summary flac16; Source: Dan Healy's Matrix Mix -> MSC -> PCM -> DAT(x2) Transfer: Panasonic SV-3800 -> Optical out -> M-Audio CO2 -> Apogee S/PDIF -> M-Audio 1010LT. Recorded in Samplitude v.8.01 (24/48) Re-Mastered: Wavelab v.5. -> CD Wave -> FlacFrontend Level 8  
  Archive
Source Information - Download Text | Download Zip
Grateful Dead
04-15-1989
The Mecca
Milwaukee, WI

Source: Dan Healy's Matrix Mix -> MSC -> PCM -> DAT(x2)

Transfer: Panasonic SV-3800 -> Optical out -> M-Audio CO2 -> Apogee S/PDIF -> M-Audio 1010LT.  Recorded in Samplitude v.8.01 (24/48)

Re-Mastered: Wavelab v.5. -> CD Wave -> FlacFrontend Level 8

Set I:
1. Mississippi Half Step-> [06:57]
2. Feel Like A Stranger-> [07:32]
3. Franklin's Tower [08:26]
4. Walkin' Blues [07:14]
5. When Push Comes To Shove * [05:20]
6. Queen Jane Approximately [07:32]
7. Blow Away -> [10:15]
8. Promised Land [04:34]
Total [57:50]
Set II:
1. China Cat Sunflower-> [06:14]
2. I Know You Rider -> [05:39]
3. Playin' In The Band-> [07:41]
4. Terrapin Station-> [12:38]
5. Drums-> ** [09:52]
6. Space-> *** [07:04]
7. I Will Take You Home-> [05:01]
8. All Along The Watchtower-> [06:08]
9. Morning Dew [12:43]
Total   [73:00]
Encore:
10. Crowd [02:36]
11. One More Saturday Night [05:07]
Total [07:43]

* Tape flip after Push [4:48] and  before Queen Jane (no gap)
** [09:17] Tape saturates w/ bass frequencies as does master (~4sec).
*** [02:59] Tape Flip and 04 sec. gap.  The removal won�t affect any future patches if they surface (hopefully).

Transferred, re-mastered and lossless compression by [email protected]

A GEMS production -+-+- www.shnflac.net -+-+- November 2006

Shntool output:
    length     expanded size   cdr  WAVE problems filename
     6:57.66       73714076    ---   --   ---xx   gd1989-04-15d1t01.flac
     7:32.53       79857500    ---   --   ---xx   gd1989-04-15d1t02.flac
     8:26.56       89390156    ---   --   ---xx   gd1989-04-15d1t03.flac
     7:14.24       76614092    ---   --   ---xx   gd1989-04-15d1t04.flac
     5:20.04       56457452    ---   --   ---xx   gd1989-04-15d1t05.flac
     7:32.08       79751660    ---   --   ---xx   gd1989-04-15d1t06.flac
    10:15.09      108507212    ---   --   ---xx   gd1989-04-15d1t07.flac
     4:34.21       48383036    ---   --   ---xx   gd1989-04-15d1t08.flac
     6:14.70       66138284    ---   --   ---xx   gd1989-04-15d2t01.flac
     5:39.54       59926652    ---   --   ---xx   gd1989-04-15d2t02.flac
     7:41.08       81339260    ---   --   ---xx   gd1989-04-15d2t03.flac
    12:38.13      133741820    ---   --   ---xx   gd1989-04-15d2t04.flac
     9:52.28      104494700    ---   --   ---xx   gd1989-04-15d2t05.flac
     7:04.32       74868908    ---   --   ---xx   gd1989-04-15d2t06.flac
     5:01.40       53190524    ---   --   ---xx   gd1989-04-15d2t07.flac
     6:08.16       64952876    ---   --   ---xx   gd1989-04-15d2t08.flac
    12:43.09      134614412    ---   --   ---xx   gd1989-04-15d2t09.flac
     2:36.45       27624284    ---   --   ---xx   gd1989-04-15d2t10.flac
     5:07.00       54154844    ---   --   ---xx   gd1989-04-15d2t11.flac
   138:40.31     1467721748 B                     (totals for 19 files, 0.5944 overall compression ratio)

There were no sector boundary errors.
Show Checksums
ffp
gd1989-04-15d1t01.flac:c85f8c3d3db2409a59e6840dd92a1116
gd1989-04-15d1t02.flac:d3a84bb003229882477128e6e9514cff
gd1989-04-15d1t03.flac:b514ccf7513ce9d001805772ab016de0
gd1989-04-15d1t04.flac:e3550062242b70efd94b973f76f58c07
gd1989-04-15d1t05.flac:9726b34df61aedc8e1d81885acd13ca9
gd1989-04-15d1t06.flac:aea5983d58888687950d837caccc1ef9
gd1989-04-15d1t07.flac:7ffc2a629334066f0928f637901fdd10
gd1989-04-15d1t08.flac:daf0c4bfbd125b27f8d9c07c1fd4659e
gd1989-04-15d2t01.flac:bb0e09ec2f3cd6327df8f2cf7ca87c12
gd1989-04-15d2t02.flac:04b86d800fb552047d2a6c40e6a6df09
gd1989-04-15d2t03.flac:2281306ec9429ab6a85276406797d71f
gd1989-04-15d2t04.flac:c8d054b1a8f132b8d9fb462cfcfad2ec
gd1989-04-15d2t05.flac:9ec313a042a8e5dd3c5616160c8844c9
gd1989-04-15d2t06.flac:60abdf575b1f8f1838adf1ce356ec2e3
gd1989-04-15d2t07.flac:fe037f3a03977681d6f218b1aa458689
gd1989-04-15d2t08.flac:53043bb120e2bcbb349b038c14c216d6
gd1989-04-15d2t09.flac:b493a139645fc6d2981ab3ee3afb01c9
gd1989-04-15d2t10.flac:22fa756c615239ca85c76a51e04e24dd
gd1989-04-15d2t11.flac:aaf24a79ba4417a529896fef210fff99
flac-md5
ddc4c17cb911a4f2cea3665105fa0534 *gd1989-04-15d1t01.flac
4b80ca9a3ac73f6aafb481cb1c99f1af *gd1989-04-15d1t02.flac
ad8999f15eabc435f2cb4c001ae70ac0 *gd1989-04-15d1t03.flac
48005dfff9080bec07075e32c6b29aef *gd1989-04-15d1t04.flac
530f5151cda04bc38e012559d6a12a06 *gd1989-04-15d1t05.flac
2a060c89bb2a26271bd1379fc65eccfe *gd1989-04-15d1t06.flac
c894092b24b6d228f4d46882709646b0 *gd1989-04-15d1t07.flac
d25bd41873eb2afeab97fc569913ce21 *gd1989-04-15d1t08.flac
270670899711fc32cff90db6ab3481b7 *gd1989-04-15d2t01.flac
76777613219de41b60f7a5e783fba1f2 *gd1989-04-15d2t02.flac
cd16c7ee31ef449d86286edd2a68c860 *gd1989-04-15d2t03.flac
3d2fc9f53f68509391b03be630605667 *gd1989-04-15d2t04.flac
3db14ad51fd98f2305c752b0fba96f8e *gd1989-04-15d2t05.flac
3a576d3ef8f729242c63634dde2285c6 *gd1989-04-15d2t06.flac
ea3c4806e2951ebebfed76f0341b014b *gd1989-04-15d2t07.flac
21043309021487aa2d313283f6fef3dc *gd1989-04-15d2t08.flac
052c08a09dac5801e62f8b14c5fd8a03 *gd1989-04-15d2t09.flac
6d7543bb086029c450d9801a5de966eb *gd1989-04-15d2t10.flac
cf83cc9c5c825fbac3f0bff1519d7c1f *gd1989-04-15d2t11.flac

Comments
Add Comment
Other Sources (comments)
Matrix DSBD (Panasonic... (4) flac16; Recording... (0) flac16; TAPER: Greg... (0) flac16: Recorded by... (0) flac24; Master... (0) flac16; Master... (0) flac16; Set One 2... (0) flac16; Source Info:... (0) flac16; Source Info:... (0)
Date User Comment
12/17/2006 charlie miller I have the sbd cassette masters which I just transferred and the timings don't match this source. It seems that the tapes I am working with are a few minutes longer. My 2nd set with encore comes to 85 minutes. Without the encore it comes to 77 minutes. The pitch on my transfer is accurate, so i'm guessing the difference is in the tape flip.

cm