Browse Collections Artists Sources   Search Dates

Add Show    List Management    Help


Zero 01/27/95
Catalyst, Santa Cruz, CA
Comments Add Comment    Source Collectors    Add to Collection    Add to Want List    History
Source # 80284 Other Sources
Entered by skbnut
Checksums md5 , ffp
Disc Counts 2 / 3
Media Size
Date Circulated
Date Added
01/01/2000
11/26/2006
Source Summary (FOB/In Hat) Nak 700/CP701 > Dat > Audiophile 2496 > Cool Edit Pro > CDWav > Flac 
Source Information - Download Text | Download Zip
Zero
01-27-95
The Catalyst, Santa Cruz, Ca

Source : (FOB/In Hat) Nakamichi 700/CP701 > Dat > Audiophile 2496 > Cool Edit Pro > CDWav > Flac
Recorded By Robert Wagner

Set 1:


d1t01 Anorexia
d1t02 Tangled Hangers
d1t03 Highway 61
d1t04 Catalina
d1t05 Mercury Blues

Set 2:

d2t01 Severe Tire Damage ->
d2t02 Pits Of Thunder
d2t03 Rigor Mortis
d2t04 Tell Me All About It ->
d2t05 Paint It Black
d3t01 Horses
d3t02 Shape Im In

Encore:

d3t03 Golden Road ->
d3t04 Lucy In The Sky


Shntool Output:

    length     expanded size   cdr  WAVE problems filename
    11:40.03      123487100    ---   --   -----   zero95-01-27d1t01.wav
    13:54.52      147239948    ---   --   -----   zero95-01-27d1t02.wav
    11:39.30      123374204    ---   --   -----   zero95-01-27d1t03.wav
    11:59.65      126984524    ---   --   -----   zero95-01-27d1t04.wav
     8:08.61       86226716    ---   --   -----   zero95-01-27d1t05.wav
    16:38.29      176115452    ---   --   -----   zero95-01-27d2t01.wav
    18:42.12      197949068    ---   --   -----   zero95-01-27d2t02.wav
    12:44.60      134910764    ---   --   -----   zero95-01-27d2t03.wav
    12:26.40      131688524    ---   --   -----   zero95-01-27d2t04.wav
     5:17.42       56017628    ---   --   -----   zero95-01-27d2t05.wav
    11:45.26      124423196    ---   --   -----   zero95-01-27d3t01.wav
     8:10.15       86471324    ---   --   -----   zero95-01-27d3t02.wav
    16:21.59      173187212    ---   --   -----   zero95-01-27d3t03.wav
     4:21.10       46063964    ---   --   -----   zero95-01-27d3t04.wav
   163:50.54     1734139624 B                     (totals for 14 files, 1.0000 overall compression ratio)
Show Checksums
md5
9cbeae85cba4c53afec584d1bd965553 *zero95-01-27d1t01.flac
7363ed0a63711d10983bf8e2bacf391a *zero95-01-27d1t02.flac
65d2699e7f98ac0b84f76ed3a3fb5ae8 *zero95-01-27d1t03.flac
6178b364c3a304dd8e29d48085ecf835 *zero95-01-27d1t04.flac
fe12876fc2830bf814902f7a21b2a569 *zero95-01-27d1t05.flac
f24ac36fae6125051116dd861da1ab9b *zero95-01-27d2t01.flac
67c7ffe6d530dadbc94dc8074e61af35 *zero95-01-27d2t02.flac
7619298f591a00ed662a23549e3fbf15 *zero95-01-27d2t03.flac
143477fcd8ef3a37086b7ea99860d46b *zero95-01-27d2t04.flac
5509b00d32be99d5c304b9b6eba710f3 *zero95-01-27d2t05.flac
a175a7978220b49b8b6deb33dad23f98 *zero95-01-27d3t01.flac
5192c5d9194d243fc67189394afc25d1 *zero95-01-27d3t02.flac
6609214036dc4354db88d4d1544ee2d1 *zero95-01-27d3t03.flac
8ff25786a2c82c0271cbf8591998f66b *zero95-01-27d3t04.flac
ffp
zero95-01-27d1t01.flac:ce8ac3093ccca24d61df6ce64c5d52cc
zero95-01-27d1t02.flac:414adc669b793df5267c95927d3b0c9d
zero95-01-27d1t03.flac:34626b3aacde9c84389f54efdf1ff530
zero95-01-27d1t04.flac:67e6cde06e7eafdd4b8ad8faf2e6e633
zero95-01-27d1t05.flac:ab44029d771f0c91a0340a80b9190303
zero95-01-27d2t01.flac:620b177c261dd4c84cff2beb42609642
zero95-01-27d2t02.flac:424e1a3a4bd08b093c720779a03a23e3
zero95-01-27d2t03.flac:85932d364dc4b39ad7648784a73dde5c
zero95-01-27d2t04.flac:633c7ab535fcb1707815207498b82fc4
zero95-01-27d2t05.flac:273ae5201f3ca03d0de1f228d7651258
zero95-01-27d3t01.flac:3dfb9ec0455d58bb67e50a9b8e0e9105
zero95-01-27d3t02.flac:93c8f6b1ae5d6c80061eef12474ea4e8
zero95-01-27d3t03.flac:aef347fd776bfb301a1462158ae64e25
zero95-01-27d3t04.flac:fcc808e2b56a95be779e34653c3c3f98

Comments
Add Comment
Date User Comment