Browse Collections Artists Sources   Search Dates

Add Show    List Management    Help


Grateful Dead 10/02/81
Rainbow Theater, London, England
Comments Add Comment    Source Collectors    Add to Collection    Add to Want List    History
Source # 80289 Other Sources
Entered by Matt Vernon
Checksums ffp , flac-md5
Disc Counts 2 / 3
Media Size
Date Circulated
Date Added
11/27/2006
11/26/2006
Source Summary flac16; source: aud > low gen cass > Wavelab > wav > flac transfer: Sony TC-FX2 > Creative Extigy > wav via Simon Phillips and SirMick 
  Archive
Source Information - Download Text | Download Zip
Grateful Dead - 10/02/1981
Rainbow Theatre,
London, England


source: aud > low gen cass > Wavelab > wav > flac
transfer: Sony TC-FX2 > Creative Extigy > wav


Set I
d1t01 - crowd/tuning
d1t02 - New Minglewood Blues
d1t03 - Sugaree >
d1t04 - C.C. Rider
d1t05 - crowd/tuning
d1t06 - Cumberland Blues
d1t07 - Cassidy
d1t08 - crowd/tuning
d1t09 - Dire Wolf
d1t10 - //Mama Tried >
d1t11 - Mexicali Blues
d1t12 - Teddy Bears Picnic tuning >
d1t13 - Althea
d1t14 - Lost Sailor >
d1t15 - Saint Of Circumstance

Set II
d2t01 - tuning
d2t02 - Playing In The Band
d2t03 - Shakedown Street >
d2t04 - Bertha >
d2t05 - Jam  >
d2t06 - Dru//ms
d3t01 - Space
d3t02 - Spanish Jam >
d3t03 - Truckin' >
d3t04 - Black Peter >
d3t05 - Sugar Magnolia

Encore
d3t06 - U.S. Blues

notes:

- the start of Mama Tried is clipped due to a tape flip
- Bertha has a very small cut at 1:37
- tape flip near end of Drums
- US Blues had a right channel dropout between 0:21- 0:43 and several smaller
  ones shortly after. I copied the left channel in
- crossfades put in where the tape had been paused and on tape flips  
- the bottom end was very heavy, iZotope Ozone and 4Front Sand Brush used to eq
- light noise reduction has been applied
- seamless join between discs 2 and 3

comments:

Many thanks to Simon Phillips for lending me his tapes

Unfortunately the sound on this recording makes the theatre sound as if it was a huge place but it wasn't like that at all.  It was a wonderful venue to go and see a show.  This photograph, http://picturepalace.mysite.wanadoo-members.co.uk/images/fp_foy.jpg, dates back to 1969.  I remember well the fountain in the foyer.

The theatre has long since been abandoned as a music venue and is now, I believe, owned by the Universal Church of the Kingdom of God.

transfer, editing and mastering
SIRMick
November 2006

shntool output:

    length     expanded size   cdr  WAVE problems filename
     0:35.07        6190508    ---   --   ---xx   gd81-10-02d1t01.flac
     7:27.59       78989612    ---   --   ---xx   gd81-10-02d1t02.flac
    10:41.01      113074796    ---   --   ---xx   gd81-10-02d1t03.flac
     7:48.54       82682252    ---   --   ---xx   gd81-10-02d1t04.flac
     1:13.74       13051292    ---   --   ---xx   gd81-10-02d1t05.flac
     5:28.36       57943916    ---   --   ---xx   gd81-10-02d1t06.flac
     5:06.18       54020780    ---   --   ---xx   gd81-10-02d1t07.flac
     0:42.19        7453532    ---   --   ---xx   gd81-10-02d1t08.flac
     3:21.73       35628140    ---   --   ---xx   gd81-10-02d1t09.flac
     2:26.49       25869692    ---   --   ---xx   gd81-10-02d1t10.flac
     4:57.22       52442588    ---   --   ---xx   gd81-10-02d1t11.flac
     2:36.02       27523148    ---   --   ---xx   gd81-10-02d1t12.flac
     8:50.43       93593180    ---   --   ---xx   gd81-10-02d1t13.flac
     7:24.23       78375740    ---   --   ---xx   gd81-10-02d1t14.flac
     7:15.44       76837532    ---   --   ---xx   gd81-10-02d1t15.flac
     1:15.62       13375868    ---   --   ---xx   gd81-10-02d2t01.flac
    11:07.27      117722348    ---   --   ---xx   gd81-10-02d2t02.flac
    13:49.20      146282684    ---   --   ---xx   gd81-10-02d2t03.flac
     7:04.53       74918300    ---   --   ---xx   gd81-10-02d2t04.flac
     4:37.57       48996908    ---   --   ---xx   gd81-10-02d2t05.flac
     9:17.57       98388908    ---   --   ---xx   gd81-10-02d2t06.flac
     5:03.59       53588012    ---   --   ---xx   gd81-10-02d3t01.flac
     4:32.64       48131372    ---   --   ---xx   gd81-10-02d3t02.flac
     7:54.28       83679500    ---   --   ---xx   gd81-10-02d3t03.flac
    11:08.46      117943436    ---   --   ---xx   gd81-10-02d3t04.flac
     8:32.20       90363884    ---   --   ---xx   gd81-10-02d3t05.flac
     4:54.42       51960428    ---   --   ---xx   gd81-10-02d3t06.flac
   165:15.09     1749028356 B                     (totals for 27 files, 0.6820 overall compression ratio)
Show Checksums
ffp
gd81-10-02d1t01.flac:8f818b1166eb1dee537e504d60035b39
gd81-10-02d1t02.flac:e048499fa49d66c13a8707d99c05efa6
gd81-10-02d1t03.flac:3f2d7fbc6f603f8c91ef9bdfb1076765
gd81-10-02d1t04.flac:382dd947f404a3e0720560cf64e7cac3
gd81-10-02d1t05.flac:85eb06818e17f15d17b643175b9c6150
gd81-10-02d1t06.flac:641038a7ae687e1ccd9787e52fa333e5
gd81-10-02d1t07.flac:d0431078137852367f1f62dbbc4a4ec1
gd81-10-02d1t08.flac:c4b211c129899037cd9105b03e4eea93
gd81-10-02d1t09.flac:6f60d9d2e5388237cef8b81e3fc375e3
gd81-10-02d1t10.flac:bbcf01e1646f84cf6e8e80b32846a728
gd81-10-02d1t11.flac:884b756eeb557d9ff8256bb0f1c5a660
gd81-10-02d1t12.flac:80e2a2aae7988464e4dab4c66f2b5208
gd81-10-02d1t13.flac:9b3eddf700adfb446c194feea3c12a28
gd81-10-02d1t14.flac:4f7b3fce55c8f2ad05bb119b2f158186
gd81-10-02d1t15.flac:d7feb84d390cc7dac0d255bd3628afe6
gd81-10-02d2t01.flac:7ebfa5d8028d666f1215609b711f67b2
gd81-10-02d2t02.flac:c1ef54d39d1eb7d9a058fa287e8c380a
gd81-10-02d2t03.flac:7b673f689bb2219e1b7a5d13f1c90968
gd81-10-02d2t04.flac:62fa9ad28abebf399d104c47383ecd01
gd81-10-02d2t05.flac:9a6179a099caacf4ff0f2c8335c3d3c9
gd81-10-02d2t06.flac:4680ebd5593ca1b1c50e9eb696b77f14
gd81-10-02d3t01.flac:4d60dda327408d5057b18f31fe895e63
gd81-10-02d3t02.flac:c6ef7464620282f517d2808efb9d71d1
gd81-10-02d3t03.flac:6e8bc13f6c790bb0817da715a13d8912
gd81-10-02d3t04.flac:7fed8e4292bedc78a2e4e75b95c0e36b
gd81-10-02d3t05.flac:9ee9600eb3de53e11eeb776f8ac9edac
gd81-10-02d3t06.flac:388be1ff3bc02d70a65eb373deabc97f
flac-md5
4778bea4875a013059cb1f16fb01d958 *gd81-10-02d1t01.flac
cd0fe59214ea7a9725c126718fb35185 *gd81-10-02d1t02.flac
23ecc6ee24572d501b558677ac090eac *gd81-10-02d1t03.flac
10c26a8333065781a5abc83b679e0386 *gd81-10-02d1t04.flac
c6ed54bf36668fab2f8c8b8a51a2009f *gd81-10-02d1t05.flac
34f8d94e231346bfc565af0ca35f269f *gd81-10-02d1t06.flac
ef87e9ff2e338c711d7699b0f1d51b98 *gd81-10-02d1t07.flac
f5dc1d68946eaead5666e7254eeac828 *gd81-10-02d1t08.flac
c0ed88e623f32dde2c1de86d41d7515b *gd81-10-02d1t09.flac
f28ff94940d8a45021609cb2949c2a5f *gd81-10-02d1t10.flac
3c78ea767a6c70a51a9021f5c7c1511f *gd81-10-02d1t11.flac
52a7b4dc046bec7b314b8833711b7b06 *gd81-10-02d1t12.flac
e10183a5549691ba7ea66b80d90cc2cd *gd81-10-02d1t13.flac
bd410c560b5e0c64e7852b10c312d29c *gd81-10-02d1t14.flac
8211655db19b6118ca8ad256a9f2ee27 *gd81-10-02d1t15.flac
d2925cdfb38ba249c160069a55f6da2c *gd81-10-02d2t01.flac
4d0c08ee94a0657655046e771809ff6d *gd81-10-02d2t02.flac
1c6a32aee3e1505652915d7dc712a22f *gd81-10-02d2t03.flac
2b0d3916e1190a136357a1c695a9de7d *gd81-10-02d2t04.flac
aefbf1c30258089c9db2907eb6a5f08b *gd81-10-02d2t05.flac
232c9804330e3e5588c15bec0dabd348 *gd81-10-02d2t06.flac
acbd2408da37e7cb26e8cf75ed748f70 *gd81-10-02d3t01.flac
13c4904cf00d8bd35442fd1acd43574a *gd81-10-02d3t02.flac
16f9f866448aa45e9a168211fca2e56d *gd81-10-02d3t03.flac
2164e4c4d01bbb122ff5b12c8aab642b *gd81-10-02d3t04.flac
112a0307b4aa11aaa24e20462f41b870 *gd81-10-02d3t05.flac
e908f7d044dde3739ab46ad64caa1e15 *gd81-10-02d3t06.flac

Comments
Add Comment
Other Sources (comments)
sbd> reel> ?> dats> wave>... (1) flac16; Set 2, Beyer... (0) flac16; Recording... (0) flac16; Source:... (0) flac16/96kHz;... (0) flac24/176.4kHz;... (0)
Date User Comment