Browse Collections Artists Sources   Search Dates

Add Show    List Management    Help


Grateful Dead 12/05/81
Market Square Arena, Indianapolis, IN
Comments Add Comment    Source Collectors    Add to Collection    Add to Want List    History
Source # 80290 Other Sources
Entered by Matt Vernon
Checksums ffp , flac-md5
Disc Counts 2 / 3
Media Size
Date Circulated
Date Added
11/26/2006
11/26/2006
Source Summary flac16; Recording Info: Unknown Audience Recording From Jim Wise -> Dat (44.1k) Transfer Info: Dat (Sony R500) -> Samplitude Professional v8.01 -> FLAC All Transfers and Mastering By Charlie Miller 
  Archive
Source Information - Download Text | Download Zip
Grateful Dead - December 5, 1981
Market Square Arena - Indianapolis, IN

Recording Info:
Unknown Audience Recording From Jim Wise -> Dat (44.1k)

Transfer Info:
Dat (Sony R500) -> Samplitude Professional v8.01 -> FLAC
(3 Discs Audio / 2 Discs FLAC)

All Transfers and Mastering By Charlie Miller
[email protected]
November 25, 2006

Notes:
-- Set 2 is seamless
-- Dat provided by Harold May
-- second half of C C Rider played in double time

Set 1:
d1t01 - Alabama Getaway >
d1t02 - The Promised Land
d1t03 - Friend Of The Devil >
d1t04 - C.C. Rider
d1t05 - Cumberland Blues >
d1t06 - El Paso
d1t07 - Ramble On Rose
d1t08 - Passenger
d1t09 - Bird Song >
d1t10 - Let It Grow

Set 2:
d2t01 - Shakedown Street >
d2t02 - Lost Sailor >
d2t03 - Saint Of Circumstance
d2t04 - Big Railroad Blues
d3t01 - Playing In The Band >
d3t02 - Drums >
d3t03 - Space >
d3t04 - The Wheel >
d3t05 - Playing In The Band >
d3t06 - Stella Blue >
d3t07 - Sugar Magnolia

Encore:
d3t08 - One More Saturday Night


SHNTOOL OUTPUT:
    length     expanded size   cdr  WAVE problems filename
     5:02.37       53359868    ---   --   -----   gd81-12-05d1t01.wav
     4:11.14       44309372    ---   --   -----   gd81-12-05d1t02.wav
     8:04.18       85419980    ---   --   -----   gd81-12-05d1t03.wav
     6:40.62       70705868    ---   --   -----   gd81-12-05d1t04.wav
     5:11.22       54912188    ---   --   -----   gd81-12-05d1t05.wav
     4:45.02       50278748    ---   --   -----   gd81-12-05d1t06.wav
     7:27.55       78980204    ---   --   -----   gd81-12-05d1t07.wav
     5:01.05       53108204    ---   --   -----   gd81-12-05d1t08.wav
    10:27.53      110727500    ---   --   -----   gd81-12-05d1t09.wav
    10:29.16      110993276    ---   --   -----   gd81-12-05d1t10.wav
    12:44.13      134800220    ---   --   -----   gd81-12-05d2t01.wav
     7:05.25       75028844    ---   --   -----   gd81-12-05d2t02.wav
     6:51.53       72625100    ---   --   -----   gd81-12-05d2t03.wav
     4:37.47       48973388    ---   --   -----   gd81-12-05d2t04.wav
    10:37.58      112503260    ---   --   -----   gd81-12-05d3t01.wav
     5:07.56       54286556    ---   --   -----   gd81-12-05d3t02.wav
     5:22.54       56927852    ---   --   -----   gd81-12-05d3t03.wav
     8:15.60       87459164    ---   --   -----   gd81-12-05d3t04.wav
     4:10.45       44205884    ---   --   -----   gd81-12-05d3t05.wav
     9:01.16       95470076    ---   --   -----   gd81-12-05d3t06.wav
     9:25.35       99748364    ---   --   -----   gd81-12-05d3t07.wav
     4:47.19       50671532    ---   --   -----   gd81-12-05d3t08.wav
   155:28.15     1645495448 B                     (totals for 22 files)
Show Checksums
ffp
gd81-12-05d1t01.flac:d4bc5b7b66f78f18e72ba3e24cedb453
gd81-12-05d1t02.flac:07a32186fccf66bc14b411a4589a264d
gd81-12-05d1t03.flac:3fcd5d1293ab8387eadadb52d1790079
gd81-12-05d1t04.flac:0fae3f9202787daaebb5e43e3833081a
gd81-12-05d1t05.flac:5303f0fe8a573798851a0fd08bc6050c
gd81-12-05d1t06.flac:512b5ddf24a2ca87c159ebe38476f88e
gd81-12-05d1t07.flac:13a4c174630059af86b2b163f4821b13
gd81-12-05d1t08.flac:7c121873bf996d533bb4678c5a0545af
gd81-12-05d1t09.flac:0d934631c6e721d85379965804273eca
gd81-12-05d1t10.flac:01734f120c8c430de90faa4e1e57bf0e
gd81-12-05d2t01.flac:b3e7a4f7ccb4dadc4f243ce6f7817e4f
gd81-12-05d2t02.flac:c5b28431b76c5b8e7795bf765876cdf5
gd81-12-05d2t03.flac:e83a06c4e363e567546f9cf497f600ee
gd81-12-05d2t04.flac:8aaba5ef1c00d4ba57b3d7c01b1873fe
gd81-12-05d3t01.flac:962c6a7a328202e8353a274648d9229d
gd81-12-05d3t02.flac:2ebf90c504c5e0c88c926f0af1bae21e
gd81-12-05d3t03.flac:359db6d699da630a3e6a312bfd91b2f3
gd81-12-05d3t04.flac:2675c04135219ef69017b6b977a11a50
gd81-12-05d3t05.flac:0e4629fc280b612f68863c53bf2c0617
gd81-12-05d3t06.flac:113943d96029ceda92cdd471051e8ef0
gd81-12-05d3t07.flac:facb840bb9958d7ac7bfd8132b4e089c
gd81-12-05d3t08.flac:a265847b5864bb16bd0c14007ac3945c
flac-md5
4210853d12284f96938db4f07d0f423d *gd81-12-05d1t01.flac
ff1d3f210ec934b08e3cb84c5f8d1f3e *gd81-12-05d1t02.flac
9aff9db7085756ece68cf3ff11e8862d *gd81-12-05d1t03.flac
f31db5f32d1b40aae9abb7b13d07c95c *gd81-12-05d1t04.flac
34edac400cacdb2d01fdc96f6c40ba86 *gd81-12-05d1t05.flac
9f02975be70a4b1270854cde9fd5559b *gd81-12-05d1t06.flac
c8697b1744c51c71911371a9c0e6f3c1 *gd81-12-05d1t07.flac
4ce553b32c195e8b9d1fed845cbd0246 *gd81-12-05d1t08.flac
3442aa598137736d3225da09d776ec05 *gd81-12-05d1t09.flac
1f9a158ee2e5b47d40d196fd968b704b *gd81-12-05d1t10.flac
749b86736c835ee40e2e3b228e183829 *gd81-12-05d2t01.flac
3e1f01fb9ee344626a0a6fffff048ece *gd81-12-05d2t02.flac
6af6ef37689592760458b3524de06561 *gd81-12-05d2t03.flac
75f85ac6f2f3d50682a15ba9ae4667ea *gd81-12-05d2t04.flac
ef56fe1fbef0f0fa47f882485fd46bb8 *gd81-12-05d3t01.flac
bed6430c91525d7492470e4db3f85f34 *gd81-12-05d3t02.flac
f641c9e18112ffa7a685e2a10986bf54 *gd81-12-05d3t03.flac
9cd395c7233237cfb3db194d3e9c19f3 *gd81-12-05d3t04.flac
4ebafd611f80c8c7e719ce7130919510 *gd81-12-05d3t05.flac
ebebeab25f5a524105db276e55f1303d *gd81-12-05d3t06.flac
e836158c7168c62ec2f91b95ae32c651 *gd81-12-05d3t07.flac
a0b1213f5ccbbd9e104cabc00f935301 *gd81-12-05d3t08.flac

Comments
Add Comment
Other Sources (comments)
Master Soundboard Cassette... (1) flac16; Recording by... (0) flac16; Updated... (0) flac16; Recording... (0) flac24; AUD: Beyers... (1) flac16; AUD: Beyers... (1)
Date User Comment
11/26/2006 charlie miller This sounds like FOB Senn 421's to me...
11/20/2010 charliemiller The pitch needs to be adjusted +0.6%