Browse Collections Artists Sources   Search Dates

Add Show    List Management    Help


Phish 11/25/98
Pepsi Arena, Albany, NY
Comments Add Comment    Source Collectors    Add to Collection    Add to Want List    History
Source # 804 Other Sources
Entered by Matt Vernon
Checksums st5 , shn-md5
Disc Counts 0 / 0
Media Size
Date Circulated
Date Added
2/19/99
06/29/2000
Source Summary OE source; missing Freebird; checksums and info file added January 2018 
Source Information - Download Text | Download Zip
Phish 11/25/98
Pepsi Arena, Albany, NY
OE Source

disc 1
1. Punch You In The Eye
2. My Soul
3. Roggae
4. AC/DC Bag
5. Lifeboy
6. David Bowie

disc 2
1. Sleep
2. Driver
3. Good Times Bad Times

Set 2
4. 2001>
5. Golgi Apparatus
6. Drowned
7. Prince Caspian
8. Piper

disc 3
1. You Enjoy Myself>
2. Been Caught Stealin' > Llama
3. E: Something
4. Guyute
(Missing Freebird)

- - - - shntoool - - - - -

    length     expanded size    cdr  WAVE problems  fmt   ratio  filename
     9:37.34      101862824 B   ---   h-   ---xx    shn  0.5863  ph98-11-25d1t01.shn
     6:35.08       69696872 B   ---   h-   ---xx    shn  0.6182  ph98-11-25d1t02.shn
     9:05.71       96305048 B   ---   h-   ---xx    shn  0.5341  ph98-11-25d1t03.shn
    10:05.15      106757336 B   ---   h-   ---xx    shn  0.5977  ph98-11-25d1t04.shn
     9:09.65       96996536 B   ---   h-   ---xx    shn  0.4899  ph98-11-25d1t05.shn
    19:05.24      202034504 B   ---   h-   ---xx    shn  0.5723  ph98-11-25d1t06.shn
     2:42.24       28633304 B   ---   h-   ---xx    shn  0.4494  ph98-11-25d2t01.shn
     4:29.24       47508104 B   ---   h-   ---xx    shn  0.4455  ph98-11-25d2t02.shn
     8:55.47       94484600 B   ---   h-   ---xx    shn  0.6269  ph98-11-25d2t03.shn
    11:54.05      125961416 B   ---   h-   ---xx    shn  0.5503  ph98-11-25d2t04.shn
     4:43.01       49923608 B   ---   h-   ---xx    shn  0.6267  ph98-11-25d2t05.shn
    11:48.65      125044136 B   ---   h-   ---xx    shn  0.6271  ph98-11-25d2t06.shn
     8:54.58       94334072 B   ---   h-   ---xx    shn  0.5708  ph98-11-25d2t07.shn
     7:23.60       78286376 B   ---   h-   ---xx    shn  0.5936  ph98-11-25d2t08.shn
    20:36.40      218124536 B   ---   h-   ---xx    shn  0.5530  ph98-11-25d3t01.shn
    11:10.23      118242152 B   ---   h-   ---xx    shn  0.6180  ph98-11-25d3t02.shn
     3:25.03       36169112 B   ---   h-   ---xx    shn  0.5282  ph98-11-25d3t03.shn
    10:32.36      111569528 B   ---   h-   ---xx    shn  0.5812  ph98-11-25d3t04.shn
   170:15.03     1801934064 B                            0.5724  (18 files)


Show Checksums
st5
3a52eae74547a85d9d92ca1c2faae472 [shntool] ph98-11-25d1t01.shn
cf1801fcfc4bc9bd25e258f7aa43a13a [shntool] ph98-11-25d1t02.shn
921922db80bc8ba02575277f867c046a [shntool] ph98-11-25d1t03.shn
ede6cf0c5653f28488f0ab765f5e3055 [shntool] ph98-11-25d1t04.shn
5327dd34f2676f72e195772ea55ac312 [shntool] ph98-11-25d1t05.shn
b6483e802df31cd875d2a354c632b9fd [shntool] ph98-11-25d1t06.shn
c64dc5278ee1907437ccc88a10997750 [shntool] ph98-11-25d2t01.shn
dec617fce1a620b13ca928bde72ac0e9 [shntool] ph98-11-25d2t02.shn
0a8d7bb8e9aad8cc6b1a4fbbe8646811 [shntool] ph98-11-25d2t03.shn
f4e47878646b291237ae1edaf21e0fde [shntool] ph98-11-25d2t04.shn
7a9947f2c1b76efcf14be267637074e2 [shntool] ph98-11-25d2t05.shn
da4b2ecce8734646234b65b86a56bda5 [shntool] ph98-11-25d2t06.shn
e15d21e450a974ca9ee6b98a84702330 [shntool] ph98-11-25d2t07.shn
219ff44d4b83f17987a9c325452846c7 [shntool] ph98-11-25d2t08.shn
7322b4eb12e2b4270b2b270b9cb25444 [shntool] ph98-11-25d3t01.shn
eba06981f98af1e22757e1a179dacc9d [shntool] ph98-11-25d3t02.shn
3b97ecc7e565e1670fe74169f51164e0 [shntool] ph98-11-25d3t03.shn
cd836a7fe5740a0d940a6be3ea0eee70 [shntool] ph98-11-25d3t04.shn
shn-md5
99c0b1eff4c98f974567b9b42774cee8 *ph98-11-25d1t01.shn
3d3d0eae75f9aa63f1626699d3c922ec *ph98-11-25d1t02.shn
4e0bf7ca45f30b378a911777328991ee *ph98-11-25d1t03.shn
9cdbf20fbf94b873f0e380d27892ff40 *ph98-11-25d1t04.shn
049b77f694a74b0089206ed871aad6ab *ph98-11-25d1t05.shn
e108b1c5566ffa2444198a7a668ce7c7 *ph98-11-25d1t06.shn
e922ee7bcb95fccba9f12ed33c23fa2b *ph98-11-25d2t01.shn
027669e1ed4566cbc32057b9c2853aef *ph98-11-25d2t02.shn
121285c91e43c8b5de52b025c82c4572 *ph98-11-25d2t03.shn
7057f0a369b9c417f1c53ec04297acab *ph98-11-25d2t04.shn
d8fc1bb3e9b5cfbbd44d886d65ddd1b2 *ph98-11-25d2t05.shn
698b5e36d65179bf7c3265c803b66fbf *ph98-11-25d2t06.shn
f0d3b6c32480aec0ae80d4ac6094db6b *ph98-11-25d2t07.shn
4f6551ce13c16196fb712195627d0729 *ph98-11-25d2t08.shn
1f7f0df50b58116f49aa743fcb627430 *ph98-11-25d3t01.shn
8c25f718247682c179afc723fcab27bc *ph98-11-25d3t02.shn
4c45743c651757a3919c02e292e36db0 *ph98-11-25d3t03.shn
3af69b2b8d98e517a91dd50886ee3184 *ph98-11-25d3t04.shn

Comments
Add Comment
Other Sources (comments)
Schoeps CMC641 > Sonosax >... (0) Microtech Gefell m210 >... (0) B&K 4021 > Apogee AD-1000... (0) flac16; Microtech... (0) flac16; (FOB)... (0) flac16; Schoeps... (0) flac16; AKG 460/ck61... (0) flac16 48kHz... (0)
Date User Comment