Browse Collections Artists Sources   Search Dates

Add Show    List Management    Help


Grateful Dead 06/19/80
West High Auditorium, Anchorage, AK
Comments Add Comment    Source Collectors    Add to Collection    Add to Want List    History
Source # 80631 Other Sources
Entered by Matt Vernon
Checksums ffp , flac-md5
Disc Counts 2 / 2
Media Size
Date Circulated
Date Added
11/29/2006
11/30/2006
Source Summary flac 16; Source: SBD -> Cassette Master; Transfer Info: Cassette Master -> Sonic Solutions -> SBM2 -> CD; Mastering Info: CD -> Samplitude Professional v8.01 -> FLAC; Cassette Masters supplied by Richard Hale; Transferred By David Gans; Patch Source Recorded By Mark Severson; Additional Mastering By Charlie Miller 
  Archive
Source Information - Download Text | Download Zip
Grateful Dead - June 19, 1980
West High Auditorium - Anchorage, AK

Recording Info:
SBD -> Cassette Master

Transfer Info:
Cassette Master -> Sonic Solutions -> SBM2 -> CD

Mastering Info:
CD -> Samplitude Professional v8.01 -> FLAC
(2 Discs Audio / 2 Discs FLAC)

Cassette Masters supplied by Richard Hale
Transferred By David Gans
Patch Source Recorded By Mark Severson
Additional Mastering By Charlie Miller
[email protected]
November 29, 2006

Patch Info:
(FOB) Nak 700 -> Cassette Master -> Sound Forge 4.0 -> CD:
Alabama Getaway (0:00 - 0:16)
They Love Each Other (4:11 - 4:18)
Althea (6:20 - 7:13)
China Cat Sunflower (0:00 - 0:11)
Drums (5:20 - 5:37)

Notes:
-- Encore on end of Set 1 to fit show onto 2 discs
-- Lost Sailor tease before Looks Like Rain

Set 1:
d1t01 - Alabama Getaway ->
d1t02 - The Promised Land
d1t03 - They Love Each Other ->
d1t04 - El Paso
d1t05 - Tennessee Jed
d1t06 - Cassidy
d1t07 - Althea ->
d1t08 - Looks Like Rain
d1t09 - Far From Me
d1t10 - The Music Never Stopped

Set 2:
d2t01 - China Cat Sunflower ->
d2t02 - I Know You Rider ->
d2t03 - C C Rider
d2t04 - Peggy-O
d2t05 - Lost Sailor ->
d2t06 - Saint Of Circumstance ->
d2t07 - Drums ->
d2t08 - Space ->
d2t09 - Wharf Rat ->
d2t10 - I Need A Miracle ->
d2t11 - Bertha ->
d2t12 - Good Lovin'

Encore:
d1t11 - U.S. Blues


SHNTOOL OUTPUT:
    length     expanded size   cdr  WAVE problems filename
     4:48.04       50812652    ---   --   -----   gd80-06-19d1t01.wav
     4:52.43       51609980    ---   --   -----   gd80-06-19d1t02.wav
     6:59.18       73953980    ---   --   -----   gd80-06-19d1t03.wav
     6:06.59       64701212    ---   --   -----   gd80-06-19d1t04.wav
    10:05.09      106743212    ---   --   -----   gd80-06-19d1t05.wav
     5:43.53       60629900    ---   --   -----   gd80-06-19d1t06.wav
     7:59.48       84608540    ---   --   -----   gd80-06-19d1t07.wav
     9:24.11       99515516    ---   --   -----   gd80-06-19d1t08.wav
     5:05.33       53879660    ---   --   -----   gd80-06-19d1t09.wav
     8:23.73       88900940    ---   --   -----   gd80-06-19d1t10.wav
     5:03.39       53540972    ---   --   -----   gd80-06-19d1t11.wav
     5:45.10       60881564    ---   --   -----   gd80-06-19d2t01.wav
     5:29.15       58070924    ---   --   -----   gd80-06-19d2t02.wav
     7:47.05       82390604    ---   --   -----   gd80-06-19d2t03.wav
     7:28.45       79133084    ---   --   -----   gd80-06-19d2t04.wav
     6:12.56       65752556    ---   --   -----   gd80-06-19d2t05.wav
     6:04.74       64383692    ---   --   -----   gd80-06-19d2t06.wav
     6:52.70       72841484    ---   --   -----   gd80-06-19d2t07.wav
     5:22.02       56805548    ---   --   -----   gd80-06-19d2t08.wav
    10:12.22      108008588    ---   --   -----   gd80-06-19d2t09.wav
     4:12.68       44612780    ---   --   -----   gd80-06-19d2t10.wav
     6:12.59       65759612    ---   --   -----   gd80-06-19d2t11.wav
     8:13.47       87075788    ---   --   -----   gd80-06-19d2t12.wav
   154:26.38     1634612788 B                     (totals for 23 files)
Show Checksums
ffp
gd80-06-19d1t01.flac:ced19dfeafae28738e7810addb6987af
gd80-06-19d1t02.flac:4874b2bf005fc4d47c0ab560d628d102
gd80-06-19d1t03.flac:18fbee0b32df64b99ba3207b639b82a2
gd80-06-19d1t04.flac:ab8a958e6433a4ab02d3a31a588e7af7
gd80-06-19d1t05.flac:a804c0f6006df0d361c672252d0ca712
gd80-06-19d1t06.flac:e63422bbd344e0a076a647e92157f5f6
gd80-06-19d1t07.flac:ef8a8393eea0d5996d075cc4fc7d845f
gd80-06-19d1t08.flac:3648126e14a4e8b4b07633f3c5055d0a
gd80-06-19d1t09.flac:848da5ce24074df3c4b9d4dc4f24c2d5
gd80-06-19d1t10.flac:916ca6e10d5e270858c24145db281ec3
gd80-06-19d1t11.flac:a486961b1dc833856de5841d2f81fe9c
gd80-06-19d2t01.flac:0cdc3816565a74372c3fab72bf67ea23
gd80-06-19d2t02.flac:5716b9f87a7697b05382b52e03db35d9
gd80-06-19d2t03.flac:7cb12dfa18db9008bc5d0991a81d15b3
gd80-06-19d2t04.flac:64adad61697912a908d685d205ab6422
gd80-06-19d2t05.flac:ee119cb7fc2bf110d56a6d3e9c06f5e3
gd80-06-19d2t06.flac:4af65bc9f520ad596a524a6817a36957
gd80-06-19d2t07.flac:6764900a7086eba17947f74a547dd3dc
gd80-06-19d2t08.flac:9d9ba8cce0eca131ec1ec6f58ec40887
gd80-06-19d2t09.flac:31997cdce1a86f87a4bbb86ebd3e12a7
gd80-06-19d2t10.flac:76002a2f49c23aa76241b00659faca24
gd80-06-19d2t11.flac:b0df3141abbdac98ff05884e3a88b5db
gd80-06-19d2t12.flac:f1695d094faad55be38e74519962f1ed
flac-md5
61309404992923404658cdffe9feeca9 *gd80-06-19d1t01.flac
f4c2d83585b203c1bf7a628ac4b1d1cc *gd80-06-19d1t02.flac
4eaa38d37e4adceacedf7cd3691f38bd *gd80-06-19d1t03.flac
c54c1b8275f06f6d9e04b10175c47043 *gd80-06-19d1t04.flac
3991568637e4094a0c4d1053ee26c135 *gd80-06-19d1t05.flac
ca86a5bd6bc52ce2527384ae4dcaede1 *gd80-06-19d1t06.flac
2bcee075438e11fde617d708ecc96ef1 *gd80-06-19d1t07.flac
41fed364fc6066487d9780d56ffff4a2 *gd80-06-19d1t08.flac
b42bc24e016bd1147741fa39aafc8084 *gd80-06-19d1t09.flac
d504ccd1f5cc8054ca9f8a5a1a999cfc *gd80-06-19d1t10.flac
8b8bd7273a74ed2905409f7cb8ee4cde *gd80-06-19d1t11.flac
e31ebdc73f264e4131fe86a9c888a204 *gd80-06-19d2t01.flac
7606131efced26e9ade67324818940a6 *gd80-06-19d2t02.flac
ef64febbbb2a7a87840b1c8b446bf9f7 *gd80-06-19d2t03.flac
f1b3861c6a0850a0d7ca6d85d5e38f31 *gd80-06-19d2t04.flac
6db3ffa5ef54b1055fb6d7c53b8eb131 *gd80-06-19d2t05.flac
1876e0a94fd8f269f646201f3d0bac65 *gd80-06-19d2t06.flac
4f190a58851e389c99ec7830051621ae *gd80-06-19d2t07.flac
8951a812ef7958d9841c21bbeba34421 *gd80-06-19d2t08.flac
b34f5c6dd3b99418224b7a07b020e2b7 *gd80-06-19d2t09.flac
506ea6f8c0c35ec92179b870f7c8ef51 *gd80-06-19d2t10.flac
c5d80fd9972fcdffc8c8c0271903a9b6 *gd80-06-19d2t11.flac
63647ede38b2039938940f7128a0b0ca *gd80-06-19d2t12.flac

Comments
Add Comment
Other Sources (comments)
SBD>MC>??>DAT>CDR; via paul... (4) flac16; Recording... (0) flac16; Recorded by... (0) flac16;Recording... (0)
Date User Comment