Browse Collections Artists Sources   Search Dates

Add Show    List Management    Help


Grateful Dead 09/26/73
War Memorial Auditorium, Buffalo, NY
Comments Add Comment    Source Collectors    Add to Collection    Add to Want List    History
Source # 80665 Other Sources
Entered by Matt Vernon
Checksums ffp , flac-md5
Disc Counts 2 / 3
Media Size
Date Circulated
Date Added
12/01/2006
12/01/2006
Source Summary flac16; Unknown Audience Lineage provided by Chuck Diliberto transfered by SirMick speed corrected and patched by Kevin Tobin 
  Archive
Source Information - Download Text | Download Zip
Grateful Dead - September 26, 1973
Buffalo War Memorial - Buffalo, NY

Recording Info:
Unknown Audience

Patched with
SBD -> Master Reel -> Dat (48k) (shnid 80198)

CD 1
Set 1
Here Comes Sunshine
Beat It On Down The Line
Deal
Looks Like Rain
Tennessee Jed
Mexicali Blues
Loser
Big River
Brown Eyed Women
The Race Is On
Row Jimmy
El Paso

CD 2
China Cat Sunflower ->
I Know You Rider
Around And Around

Set 2:
Tuning
Playing In The Band
Sing Me Back Home
Me And My Uncle

CD 3
He's Gone ->
Truckin' ->
Eyes Of The World ->
Weather Report Suite ->
Let It Grow
Sugar Magnolia
Encore:
One More Saturday Night

SirMick sent me this audience for speed correction ... on the lineage he sent me this:
"I got the tapes from a guy called Chuck Diliberto who said "he got them from the "guy who
taped the show". He said the guy was from Buffalo" "

I orginally tried to use the circulating RM sbd (shnid 16155) to match it too but that version had its own speed problems so was very happy when Charlie Miller released the RM > DAT version that I also used to patch. The start of the show through Playing was approx 2 seconds per minute fast. Sing Me Back Home & Me And My Uncle surprisingly were slow at approx 1 second per minute and then He's Gone to the end was fast again at approx 2 seconds per minute. Thanks to Charlie and SirMick for making these available

Audio Patching:
1) Between Deal and Looks Like Rain, 4.020 seconds was missing from the aud source and filled in with audio from the soundboard. This portion of the audio was normalized to blend in better.

2) Between Looks Like Rain and Tennessee Jed, 18.281 seconds was missing from the aud source and filled in with audio from the soundboard. This portion of the audio was normalized to blend in better.

3) Between Mexicali Blues and Loser, 17.018 seconds was missing from the aud source and filled in with audio from the soundboard. This portion of the audio was normalized to blend in better.

4) Between Loser and Big River, 2.958 seconds was missing from the aud source and filled in with audio from the soundboard. This portion of the audio was normalized to blend in better.

5) Between Big River and Brown Eyed Women, 1 minute 50.823 seconds was missing from the aud source and filled in with audio from the soundboard. This portion of the audio was normalized to blend in better. Note: first few notes of Brown Eyed Women are missing on all sources.

6) Between The Race Is On and Row Jimmy, 1.963 seconds was missing from the aud source and filled in with audio from the soundboard. This portion of the audio was normalized to blend in better.

7) Before China Cat Sunflower, 2.428 seconds was missing from the aud source and filled in with audio from the soundboard. This portion of the audio was normalized to blend in better.

8) Before Playing In The Band, 38.401 seconds was missing from the aud source and filled in with audio from the soundboard. This portion of the audio was normalized to blend in better.

9) 18 minutes into Playing In The Band, 2 minutes 11.215 seconds was missing from the aud source and filled in with audio from the soundboard. This portion of the audio was normalized to blend in better. The end of Playing and first few notes of Sing Me Back Home were missing.

10) Between Sing Me Back Home and Me and My Uncle, 12.387 seconds was missing from the aud source and filled in with audio from the soundboard. This portion of the audio was normalized to blend in better.

11) 2 minutes into Me and My Uncle, 1 minutes 58.385 seconds was missing from the aud source and filled in with audio from the soundboard. This portion of the audio was normalized to blend in better. The end of Me and My Uncle was missing.

12) Before He's Gone, 15.360 seconds was missing from the aud source and filled in with audio from the soundboard. This portion of the audio was normalized to blend in better.

13) Between Weather Report Suite and Let It Grow, 14.236 seconds was missing from the aud source and filled in with audio from the soundboard. This portion of the audio was normalized to blend in better.

14) Between Let It Grow and Sugar Magnolia, 2 minute 24.871 seconds was missing from the aud source and filled in with audio from the soundboard. This portion of the audio was normalized to blend in better.

SHNs were decoded to wave and Audition 1.0 was used to reassemble
the tracks back to 1 long wave.  Audition 1.0 was used to align &
synch the SBD & AUD sources.  
- Aud and sbd were synced while working on a dts encoded cds
- Mixed by [email protected]
- FLAC conversion 29-NOV-2006  

length     expanded size   cdr  WAVE problems filename
    10:30.52      111254348    ---   --   -----   gd1973-09-26-aud-d1t01.wav
     3:28.48       36804140    ---   --   -----   gd1973-09-26-aud-d1t02.wav
     4:30.39       47719772    ---   --   -----   gd1973-09-26-aud-d1t03.wav
     6:44.43       71366780    ---   --   -----   gd1973-09-26-aud-d1t04.wav
     7:53.71       83604236    ---   --   -----   gd1973-09-26-aud-d1t05.wav
     3:14.11       34247516    ---   --   -----   gd1973-09-26-aud-d1t06.wav
     6:47.06       71808956    ---   --   -----   gd1973-09-26-aud-d1t07.wav
     4:22.00       46216844    ---   --   -----   gd1973-09-26-aud-d1t08.wav
     5:15.67       55723628    ---   --   -----   gd1973-09-26-aud-d1t09.wav
     3:00.52       31874348    ---   --   -----   gd1973-09-26-aud-d1t10.wav
     8:56.34       94630412    ---   --   -----   gd1973-09-26-aud-d1t11.wav
     4:16.14       45191372    ---   --   -----   gd1973-09-26-aud-d1t12.wav
     7:40.65       81296924    ---   --   -----   gd1973-09-26-aud-d2t01.wav
     5:10.00       54684044    ---   --   -----   gd1973-09-26-aud-d2t02.wav
     5:08.15       54366524    ---   --   -----   gd1973-09-26-aud-d2t03.wav
     0:41.05        7244204    ---   --   -----   gd1973-09-26-aud-d2t04.wav
    19:16.46      204026636    ---   --   -----   gd1973-09-26-aud-d2t05.wav
     9:07.38       96580220    ---   --   -----   gd1973-09-26-aud-d2t06.wav
     3:03.08       32300060    ---   --   -----   gd1973-09-26-aud-d2t07.wav
    13:27.14      142387772    ---   --   -----   gd1973-09-26-aud-d3t01.wav
    12:24.40      131335724    ---   --   -----   gd1973-09-26-aud-d3t02.wav
    16:00.37      169431068    ---   --   -----   gd1973-09-26-aud-d3t03.wav
     5:30.31       58284956    ---   --   -----   gd1973-09-26-aud-d3t04.wav
    14:41.17      155448428    ---   --   -----   gd1973-09-26-aud-d3t05.wav
    10:22.09      109742012    ---   --   -----   gd1973-09-26-aud-d3t06.wav
     4:45.61       50417516    ---   --   -----   gd1973-09-26-aud-d3t07.wav
   196:19.73     2077988440 B                     (totals for 26 files, 1.0000 overall compression ratio)

Show Checksums
ffp
gd1973-09-26-aud-d3t07.flac:11c07f9af5cbda99c1936b5ca4f414f5
gd1973-09-26-aud-d1t01.flac:c9e121ddabe82820c80bf45611af64a5
gd1973-09-26-aud-d1t02.flac:ea2cd617f8ed81a3d2108ed362fc0cfd
gd1973-09-26-aud-d1t03.flac:81fbe7f28db3f74e0e825f08803544b5
gd1973-09-26-aud-d1t04.flac:fbe6ee25abaff0abad1bb60e65f40d26
gd1973-09-26-aud-d1t05.flac:9816418abe061dd4e6ce4955d2ccd3f8
gd1973-09-26-aud-d1t06.flac:86749fdc95ee25599a89d7aaec7d1c36
gd1973-09-26-aud-d1t07.flac:eda5af298c4739c57d23495bb4b2b4bd
gd1973-09-26-aud-d1t08.flac:86e123eef9ed4bf680bfeacfe09d4c70
gd1973-09-26-aud-d1t09.flac:996cc6120fe3a4c93d2ec4e6647c8882
gd1973-09-26-aud-d1t10.flac:8ab94543371d047a52718f5ef18d9e22
gd1973-09-26-aud-d1t11.flac:fcf1ff32d7b416e7aa2cf4e521a96f67
gd1973-09-26-aud-d1t12.flac:64d32431ce23ed101ec67efdb5c2a187
gd1973-09-26-aud-d2t01.flac:68ba12058e94fe0cb5d2f15b6749ed90
gd1973-09-26-aud-d2t02.flac:6c47379c5b7526f723f27317e13c8fb9
gd1973-09-26-aud-d2t03.flac:ee997c7451ed7c8d39e63e002cbc18a7
gd1973-09-26-aud-d2t04.flac:0c04866dde0b2faf663dc20dd721abbc
gd1973-09-26-aud-d2t05.flac:4d18db780e485ab15deaab20cb16a3ea
gd1973-09-26-aud-d2t06.flac:cf0a01de12cc16e46336d994215be409
gd1973-09-26-aud-d2t07.flac:630f8b25d4e50fb1b1114c19f207598e
gd1973-09-26-aud-d3t01.flac:1da3b457de59b75c6d944a2aea29a3a9
gd1973-09-26-aud-d3t02.flac:e2ad57780b1f4c75891c81d1fd746baf
gd1973-09-26-aud-d3t03.flac:d299eab5ea6b68404858f0ab1da664ce
gd1973-09-26-aud-d3t04.flac:f9d694840e909b6308cb3d99cc6ed466
gd1973-09-26-aud-d3t05.flac:03380f5ee2ade4e7a5f4bc34d48bc1ff
gd1973-09-26-aud-d3t06.flac:a67452e4e62b497fde6c0a8d65536f00
flac-md5
e651c97338fb380f9ff6ff6f2fa7a690 *gd1973-09-26-aud-d1t01.flac
0b7cbc95590737247dc641d2cd302b47 *gd1973-09-26-aud-d1t02.flac
b307d3eb9c445dd80f64a3b290a92203 *gd1973-09-26-aud-d1t03.flac
9d9ca33004dcfa5d7f096d448caf915c *gd1973-09-26-aud-d1t04.flac
77aaf1fb7b4f5e7923734c4026751722 *gd1973-09-26-aud-d1t05.flac
03441892bccac7c4cdfe1eceec082e20 *gd1973-09-26-aud-d1t06.flac
280adb4b79824974e3c6c112713f083e *gd1973-09-26-aud-d1t07.flac
d2538998653c28911988a1b9acdf2bb1 *gd1973-09-26-aud-d1t08.flac
5b87840ab9cd8c4c3cecfafd39673bba *gd1973-09-26-aud-d1t09.flac
444df97f4956909c5ebdbad2cb88fd10 *gd1973-09-26-aud-d1t10.flac
00c866f922cdac4f8900d76533510b2d *gd1973-09-26-aud-d1t11.flac
03ff84469cfd4172daead887f2f5b85b *gd1973-09-26-aud-d1t12.flac
7cd17cc7c8ee4f9f29a7dadf0ab26780 *gd1973-09-26-aud-d2t01.flac
7e307c23983f844cd948e4baffe229a4 *gd1973-09-26-aud-d2t02.flac
3ef609a2b5d01b1d024e176eede3fbe1 *gd1973-09-26-aud-d2t03.flac
8fb0c185c7be0754e46d760668aaee8e *gd1973-09-26-aud-d2t04.flac
f4838d09a2303da5f1100f2274314278 *gd1973-09-26-aud-d2t05.flac
42c133c6a0605f3fa65e78863ec6ce61 *gd1973-09-26-aud-d2t06.flac
b85c2d57b18a563f621708550a5513e2 *gd1973-09-26-aud-d2t07.flac
7c1846435071c61d42f14c1affd25660 *gd1973-09-26-aud-d3t01.flac
ab8b2f7136bc2267f919c3a305a159f9 *gd1973-09-26-aud-d3t02.flac
be6ad40447c060b99f9566398a172a9c *gd1973-09-26-aud-d3t03.flac
838d13fe09ed179a804a386f8b0d9629 *gd1973-09-26-aud-d3t04.flac
9f3d525ee82f0f906d1dac5e469b1a12 *gd1973-09-26-aud-d3t05.flac
c7096efc15e2a6bd05833d9a5ca166b9 *gd1973-09-26-aud-d3t06.flac
8f61e310e2138a2e96f5922006352727 *gd1973-09-26-aud-d3t07.flac

Comments
Add Comment
Other Sources (comments)
SBD: Rm > DAT > CD /... (9) flac16; Recording... (3) DTS Audio 5.1; Mix... (1) flac16; Matrix 2... (0)
Date User Comment