Browse Collections Artists Sources   Search Dates

Add Show    List Management    Help


Zero 05/05/98
The Ventura Theater, Ventura, CA
Comments Add Comment    Source Collectors    Add to Collection    Add to Want List    History
Source # 80799 Other Sources
Entered by
Checksums shn.md5
Disc Counts 2 / 3
Media Size
Date Circulated
Date Added
06/01/1998
12/08/2006
Source Summary Unknown Mics > ? > CD > EAC > Shn 
Source Information - Download Text | Download Zip
Zero - 5/5/98
Ventura Theater - Ventura, CA

Source: unknown audio CD

Set 1:

d1t01 - Pits of Thunder
d1t02 - Sun Sun Sun
d1t03 - Into The Mystic
d1t04 - Ermaline
d1t05 - Running on Faith >
        Out in the Woods outro
d1t06 - Catalina

Set 2:

d2t01 - Mr. Broadway >
        In A Silent Way >
        It's About That Time >
        In A Silent Way
d2t02 - Tangled Hangers >
        Drum intro (tease) >
d2t03 - For What It's Worth
d2t04 - Highway 61 Revisited
d2t05 - Cripple Creek
d2t06 - Jumpin' Jack Flash
d2t07 - Tequila
d2t08 - Chance In A Million

Encore:

d3t01 - Home On The Range


SHNTOOL OUTPUT:

    length     expanded size   cdr  WAVE problems filename
    12:50.39      135919784    ---   h-   -----   zero1998-05-05d1t01.wav
    11:10.45      118293896    ---   h-   -----   zero1998-05-05d1t02.wav
     8:51.13       93699032    ---   h-   -----   zero1998-05-05d1t03.wav
     9:59.06      105677768    ---   h-   -----   zero1998-05-05d1t04.wav
    10:02.45      106298696    ---   h-   -----   zero1998-05-05d1t05.wav
    12:10.32      128847320    ---   h-   -----   zero1998-05-05d1t06.wav
     9:56.56      105266168    ---   h-   -----   zero1998-05-05d2t01.wav
    12:18.23      130237352    ---   h-   -----   zero1998-05-05d2t02.wav
     7:08.41       75595688    ---   h-   -----   zero1998-05-05d2t03.wav
     9:14.23       97779752    ---   h-   -----   zero1998-05-05d2t04.wav
    11:06.24      117538904    ---   h-   -----   zero1998-05-05d2t05.wav
     6:12.26       65682008    ---   h-   -----   zero1998-05-05d2t06.wav
     7:42.55       81626216    ---   h-   -----   zero1998-05-05d2t07.wav
     7:36.25       80497256    ---   h-   -----   zero1998-05-05d2t08.wav
    14:06.09      149255624    ---   h-   -----   zero1998-05-05d3t01.wav
   150:26.12     1592215464 B                     (totals for 15 files, 1.0000 overall compression ratio)
Show Checksums
shn.md5
f94f4c367303781fd1d5a03f6ef482dd *zero1998-05-05d1t01.shn
3e8ea6850301e14923c26126f0053264 *zero1998-05-05d1t02.shn
1b2c5605888864a8d98ccbe551981f75 *zero1998-05-05d1t03.shn
f5950f3d769575f6c8c8f38ff932c0a2 *zero1998-05-05d1t04.shn
29cf1d70e2515157e2db188e29616f98 *zero1998-05-05d1t05.shn
089c5e35abb17c9044993df00e37951b *zero1998-05-05d1t06.shn
66377fc107dba837a51aa65cef868636 *zero1998-05-05d2t01.shn
ad78eee9abcf1726dfc91277933ade3c *zero1998-05-05d2t02.shn
6326838a531036d4379a53d8c63749f6 *zero1998-05-05d2t03.shn
b8620bba896b333d75645ace32037e3d *zero1998-05-05d2t04.shn
dea9bb29a20a7657d0a5174e5551eff0 *zero1998-05-05d2t05.shn
e693a874bfbfeaecd875bd449a2bdf61 *zero1998-05-05d2t06.shn
84a8bb21568d7bb1fda38db0fed1a522 *zero1998-05-05d2t07.shn
9bab913f9b105c6b74308dda649b132b *zero1998-05-05d2t08.shn
507cd12699017d727bfa666f428795d6 *zero1998-05-05d3t01.shn

Comments
Add Comment
Date User Comment