Browse Collections Artists Sources   Search Dates

Add Show    List Management    Help


Zero 12/31/99
Maritime Hall, San Franciso, CA
Comments Add Comment    Source Collectors    Add to Collection    Add to Want List    History
Source # 80803 Other Sources
Entered by
Checksums shn.md5
Disc Counts 1 / 1
Media Size
Date Circulated
Date Added
01/01/2000
12/08/2006
Source Summary (Stage) Unknown Mics > ? > CD > EAC > Shn 
Source Information - Download Text | Download Zip
Zero - 12/31/99
Maritime Hall - San Francisco, CA

Source: unknown stage mics (art or dr. bob) > CDR > EAC > SHN

d1t01 - Tongue 'n' Groove
d1t02 - La Fiesta
d1t03 - Eight Below Zero
d2t04 - Tear Tags Off Mattresses
d1t05 - Forever Is Nowhere


SHNTOOL OUTPUT:

    length     expanded size   cdr  WAVE problems filename
    14:21.55      152009804    ---   --   -----   zero1999-12-31d1t01.wav
    11:32.12      122097068    ---   --   -----   zero1999-12-31d1t02.wav
    14:52.17      157388828    ---   --   -----   zero1999-12-31d1t03.wav
    16:46.52      177580748    ---   --   -----   zero1999-12-31d1t04.wav
     9:20.30       98854604    ---   --   -----   zero1999-12-31d1t05.wav
    66:53.16      707931052 B                     (totals for 5 files, 1.0000 overall compression ratio)


Show Checksums
shn.md5
6e9b38ccd2b6ef27e1e64bb9809864e9 *zero1999-12-31d1t01.shn
9c76b4f694f37891af7e68d843f5442b *zero1999-12-31d1t02.shn
bad00a2f4a5351b441b371e132f208e5 *zero1999-12-31d1t03.shn
cb1526ddc158f4de727f6089644142f9 *zero1999-12-31d1t04.shn
0fe76ab9bd59887e7d294a5b6f45c986 *zero1999-12-31d1t05.shn

Comments
Add Comment
Date User Comment