Browse Collections Artists Sources   Search Dates

Add Show    List Management    Help


Garcia 11/17/91
Hartford Civic Center, Hartford, CT
Comments Add Comment    Source Collectors    Add to Collection    Add to Want List    History
Source # 81014 Other Sources
Entered by Joe Jupille
Checksums ffp , md4
Disc Counts 1 / 2
Media Size
Date Circulated
Date Added
12/17/2006
12/18/2006
Source Summary JGB: John Mutterperl's FOB Schoeps CMC 44 blue dot cards with 90 degree capsule offsets > 6' Monster M1000 cable -> Oade PS-> 1' Monster M1000 > Oade mod'd Panasonic Sv-255. Mics were hung from a necklace, just under chin height with roughly a 4 inch spread and 90 degree angle. MAD > B. Fried DAT > B. Koucky DAT > Sony PCM-R500 playback > S/PDIF > Presonus Firebox > Firewire > PC, XP Pro > Wavelab 5 (recorded as 24 bit/48 KHz WAV) > Waves L3 Multimaximizer, high res CD rendering settings (Waves IDR type I dither/ultra shaping) > 16 bit/44.1 KHz WAV > CDWAV 1.9 > WAV > FLAC (level 8). Transfer and encoding by C.Ladner. 
Source Information - Download Text | Download Zip
Jerry Garcia Band
11/17/1991
Hartford Civic Center
Hartford, CT  

Source:  FOB Schoeps MK41s > Panasonic SV-225 > DAT (48k).   Tape provided by B.Koucky, rec'd from B.Fried, 1996.
Transfer:  Playback on Sony PCM-R500 > S/PDIF > Presonus Firebox > Firewire > PC, XP Pro > Wavelab 5 (recorded as 24 bit/48 KHz WAV) > Waves L3 Multimaximizer, high res CD rendering settings (Waves IDR type I dither/ultra shaping) > 16 bit/44.1 KHz WAV > CDWAV 1.9 > WAV > FLAC (level 8).  Transfer and encoding by C.Ladner.
Seeded by the green mtn bros, 12/2006 @ bt.etree.org.

Rich Gastwirt posted the following additional info to bt.etree.org:
Schoeps CMC 44 blue dot cards with 90 degree capsule offsets so they could be held vertically -> 6 feet of Monster M1000 cable -> Oade PS-> 1 foot of Monster M1000=> Oade mod'd Panasonic Sv=255. Mics were hung from a  necklace, just under chin height with roughly a 4 inch spread and 90 degree
angle. Mics were worn by the late great John Mutterperl.

Disc I - Set I
01  I Second That Emotion
02  Struggling Man
03  Let It Rock
04  Reuben And Cherise
05  Like A Road
06  Waiting For A Miracle
07  Deal

Disc II - Set II
01  He Ain't Give You None
02  I Shall Be Released
03  Tore Up Over You
04  Ain't No Bread In The Breadbox
05  My Sisters And Brothers
06  Midnight Moonlight  
07  encore call
Encore
08  (What A) Wonderful World

SHNTOOL LEN OUTPUT:
    length     expanded size   cdr  WAVE problems filename
    10:41.48      113185340    ---   --   ---xx   jgb1991-11-17d1t01.flac
     7:14.43       76658780    ---   --   ---xx   jgb1991-11-17d1t02.flac
     8:09.66       86414876    ---   --   ---xx   jgb1991-11-17d1t03.flac
     8:14.35       87223964    ---   --   ---xx   jgb1991-11-17d1t04.flac
     9:24.45       99595484    ---   --   ---xx   jgb1991-11-17d1t05.flac
     6:05.69       64548332    ---   --   ---xx   jgb1991-11-17d1t06.flac
     7:30.30       79450604    ---   --   ---xx   jgb1991-11-17d1t07.flac
    11:05.18      117348380    ---   --   ---xx   jgb1991-11-17d2t01.flac
     9:02.41       95705276    ---   --   ---xx   jgb1991-11-17d2t02.flac
     8:58.50       95020844    ---   --   ---xx   jgb1991-11-17d2t03.flac
    11:09.17      118051628    ---   --   ---xx   jgb1991-11-17d2t04.flac
     4:09.41       44020076    ---   --   ---xx   jgb1991-11-17d2t05.flac
     6:08.19       64959932    ---   --   ---xx   jgb1991-11-17d2t06.flac
     2:03.66       21852476    ---   --   ---xx   jgb1991-11-17d2t07.flac
     8:07.50       86024444    ---   --   ---xx   jgb1991-11-17d2t08.flac
   118:06.38     1250060436 B                     (totals for 15 files, 0.5740 overall compression ratio)
Show Checksums
ffp
jgb1991-11-17d1t01.flac:9a4426d83a9a7ad5d6e10df0f2eccf7c
jgb1991-11-17d1t02.flac:927ef31e9c4c65a13a9793eb6f9002c5
jgb1991-11-17d1t03.flac:c49e9f94c9efc68a7fb4ad8318452e19
jgb1991-11-17d1t04.flac:ec9e6ea357d6d2b3afd43217e8b23d62
jgb1991-11-17d1t05.flac:2da6077be14b4773292d81abd29d132d
jgb1991-11-17d1t06.flac:5bf38b4a29b016f39a42939d5e9b5bca
jgb1991-11-17d1t07.flac:a0639b5131d867d0a312ac950c6b5834
jgb1991-11-17d2t01.flac:4f3860387947c221cc10b97e06e51924
jgb1991-11-17d2t02.flac:7d5612fc10f1eeeb2214641b7f695181
jgb1991-11-17d2t03.flac:f0806230405f0969dab666a5755c737d
jgb1991-11-17d2t04.flac:a5253128eb5ffbcbb732396ebe971e23
jgb1991-11-17d2t05.flac:f9512328f3f235c92ae97c999bb01863
jgb1991-11-17d2t06.flac:da1fa4866bd9ad012505ee28ef1133b5
jgb1991-11-17d2t07.flac:89f92408936153277047e98a8f5cedfa
jgb1991-11-17d2t08.flac:40d79c987b8cf27a42707d16f9dd4970
md4
cf5a2de0830dae3f6fb2d20279be5e49 *jgb1991-11-17d1t01.flac
7e0f9877fc8e4f9ee95a69f9e857c58a *jgb1991-11-17d1t02.flac
189dc98b4bd36d57023610391449610c *jgb1991-11-17d1t03.flac
c5377cd134cfb041dcbce3b8eba93f31 *jgb1991-11-17d1t04.flac
f616c812ac857b1513d7b8d590c4b75e *jgb1991-11-17d1t05.flac
7c4083d00bb6f7855c645d05774aa346 *jgb1991-11-17d1t06.flac
4b8fe90a6faf190ce534b7e98919b379 *jgb1991-11-17d1t07.flac
3e06d00679c2c1cf9ab1cbf4f8fc78ae *jgb1991-11-17d2t01.flac
538820cc9847ea32ceb03856053a47f8 *jgb1991-11-17d2t02.flac
e5898cb13540dbdc9a517406c2781a49 *jgb1991-11-17d2t03.flac
58567bba763bfbf5e785fb9b270112d5 *jgb1991-11-17d2t04.flac
84684902cccf230fc18d839998d8b5cb *jgb1991-11-17d2t05.flac
9c574f707d475bc029e8a7bfdae5e18f *jgb1991-11-17d2t06.flac
2477ea0d32e325eec6a4a0b3607c112f *jgb1991-11-17d2t07.flac
922f1f0a4eba1dfd655d868cb59b6ca5 *jgb1991-11-17d2t08.flac

Comments
Add Comment
Other Sources (comments)
Jerry Garcia Band: FOB... (1) JGB; flac1644;fob/schoeps... (0) JGB; flac1644; flac version... (0)
Date User Comment