Browse Collections Artists Sources   Search Dates

Add Show    List Management    Help


Grateful Dead 03/14/81
Hartford Civic Center, Hartford, CT
Comments Add Comment    Source Collectors    Add to Collection    Add to Want List    History
Source # 81340 Other Sources
Entered by Matt Vernon
Checksums ffp , flac-md5
Disc Counts 2 / 3
Media Size
Date Circulated
Date Added
01/01/2007
01/01/2007
Source Summary flac16; Recorded by Bob Wagner Master Audience Cassette; 2 Nak 700s> Sony D5M (Maxell UD XL-IIs) Transfer and FLAC encoding by David Minches: Master played back on Nakamichi Dragon > ART DI/O > Digital Audio Labs Card Deluxe soundcard > Cool Edit 2000 > flac encoding > FLAC Patches supplied by A:C:D:CD recorded with Sennheiser 421s 
  Archive
Source Information - Download Text | Download Zip
Grateful Dead
March 14, 1981
Civic Center, Hartford, CT

Recorded by Bob Wagner
Master Audience Cassette; 2 Nak 700s> Sony D5M (Maxell UD XL-IIs)
Transfer and FLAC encoding by David Minches:
Master played back on Nakamichi Dragon > ART DI/O > Digital Audio Labs Card Deluxe soundcard > Cool Edit 2000 > flac encoding > FLAC
Patches supplied by A:C:D:CD recorded with Sennheiser 421s


Set 1:
d1t01 - Tuning
d1t02 - Feel Like A Stranger
d1t03 - Sugaree
d1t04 - Me & My Uncle->
d1t05 - Big River
d1t06 - Peggy-O->
d1t07 - CC Rider
d1t08 - Althea
d1t09 - Passenger
d1t10 - China Cat Sunflower->
d1t11 - I Know You Rider

Set 2:
d2t01 - Tuning
d2t02 - Alabama Getaway-> *
d2t03 - Greatest Story Ever Told
d2t04 - Ship of Fools
d2t05 - Lost Sailor->
d2t06 - Saint Of Circumstance->
d2t07 - Drums->
d3t01 - Space-> **
d3t02 - The Other One->
d3t03 - Stella Blue->
d3t04 - I Need A Miracle->
d3t05 - Bertha->
d3t06 - Good Lovin'

Encore:
d3t07 - One More Saturday Night

* Patch supplies 1:27 - 1:41
** Patch supplies first 1:52


SHNTOOL LEN OUTPUT:

    length     expanded size    cdr  WAVE problems  fmt   ratio  filename
     1:33.62       16551068 B   ---   --   ---xx   flac  0.4574  gd1981-03-14d1t001.flac
     9:22.50       99254444 B   ---   --   ---xx   flac  0.5421  gd1981-03-14d1t002.flac
    12:34.50      133123244 B   ---   --   ---xx   flac  0.5507  gd1981-03-14d1t003.flac
     2:53.50       30634844 B   ---   --   ---xx   flac  0.5494  gd1981-03-14d1t004.flac
     8:09.73       86431340 B   ---   --   ---xx   flac  0.5162  gd1981-03-14d1t005.flac
     7:31.27       79619948 B   ---   --   ---xx   flac  0.5159  gd1981-03-14d1t006.flac
     9:48.27      103786748 B   ---   --   ---xx   flac  0.5338  gd1981-03-14d1t007.flac
     9:54.56      104913356 B   ---   --   ---xx   flac  0.5222  gd1981-03-14d1t008.flac
     5:56.64       62948972 B   ---   --   ---xx   flac  0.5698  gd1981-03-14d1t009.flac
     5:56.66       62953676 B   ---   --   ---xx   flac  0.5747  gd1981-03-14d1t010.flac
     6:01.31       63753356 B   ---   --   ---xx   flac  0.5904  gd1981-03-14d1t011.flac
     1:59.62       21137468 B   ---   --   ---xx   flac  0.4301  gd1981-03-14d2t001.flac
     5:06.40       54072524 B   ---   --   ---xx   flac  0.5796  gd1981-03-14d2t002.flac
     4:48.41       50899676 B   ---   --   ---xx   flac  0.5753  gd1981-03-14d2t003.flac
     9:19.11       98633516 B   ---   --   ---xx   flac  0.5292  gd1981-03-14d2t004.flac
     6:33.30       69395804 B   ---   --   ---xx   flac  0.5610  gd1981-03-14d2t005.flac
     6:58.64       73885772 B   ---   --   ---xx   flac  0.6180  gd1981-03-14d2t006.flac
    12:31.52      132598748 B   ---   --   ---xx   flac  0.5102  gd1981-03-14d2t007.flac
     2:31.48       26749340 B   ---   --   ---xx   flac  0.4639  gd1981-03-14d3t001.flac
     5:25.40       57424124 B   ---   --   ---xx   flac  0.5908  gd1981-03-14d3t002.flac
    10:00.35      105922364 B   ---   --   ---xx   flac  0.5308  gd1981-03-14d3t003.flac
     3:27.38       36604220 B   ---   --   ---xx   flac  0.6317  gd1981-03-14d3t004.flac
     5:54.40       62539724 B   ---   --   ---xx   flac  0.6357  gd1981-03-14d3t005.flac
     8:22.58       88689260 B   ---   --   ---xx   flac  0.6111  gd1981-03-14d3t006.flac
     4:29.15       47486924 B   ---   --   ---xx   flac  0.6290  gd1981-03-14d3t007.flac
   167:14.05     1770010460 B                            0.5541  (25 files)
Show Checksums
ffp
gd1981-03-14d1t010.flac:702ca75b2ccd713114d65abff89f7ad0
gd1981-03-14d1t011.flac:3026d244367ff5ffe912b57b6941f620
gd1981-03-14d2t001.flac:cd729191759e88a8d0ceeeb02edca5ab
gd1981-03-14d2t002.flac:455b1fd7c52c4a8aa9f8134eb9854172
gd1981-03-14d2t003.flac:5ab2781a686694e8369e0479acef1a48
gd1981-03-14d2t004.flac:03917ff4878b07337d7918e8d3833901
gd1981-03-14d2t005.flac:b805d90ee091f5a7ac8cda11122e884d
gd1981-03-14d2t006.flac:e7befaeb854fb7d118c6064d6bfd568f
gd1981-03-14d2t007.flac:918655e4123e837db6f38612e9d8499e
gd1981-03-14d3t001.flac:e96af71dde38cc292a740bee80e3cf17
gd1981-03-14d3t002.flac:f89af0b36c4b971d5ac283d40143c949
gd1981-03-14d3t003.flac:fde3c10bab5e7ee5df63048e2137f4b0
gd1981-03-14d3t004.flac:3e65c5e9357f8b54df1c0b1f3c72e9f8
gd1981-03-14d3t005.flac:26edf2c7801431d233aee762f9f53bb4
gd1981-03-14d3t006.flac:41c269893a9dfe7c8c5c5efb90ef92c3
gd1981-03-14d3t007.flac:500931b2a292b8847b4daf5cc629eec8
gd1981-03-14d1t001.flac:70e74c7c5f6f15ab6aa2d484a9678d28
gd1981-03-14d1t002.flac:fa32a49271bdcfd4c600718c51c9e122
gd1981-03-14d1t003.flac:226ba27c02296abcd4900bd6ceeb2cd2
gd1981-03-14d1t004.flac:d2067748677180941c622632693ec603
gd1981-03-14d1t005.flac:cc498607c740cbcfc18a02c4824a86c5
gd1981-03-14d1t006.flac:a0d0cbc23fe7c7d626b5f05d85f5fc52
gd1981-03-14d1t007.flac:83f3b7203a280bf14c15dab0c21c9f05
gd1981-03-14d1t008.flac:626df230d50051ea2550f4ca00f551f9
gd1981-03-14d1t009.flac:22177aa7cc1127c9e66d1b0d830816b2
flac-md5
7db7a467d9f104f8addade377b0c777f *gd1981-03-14d1t001.flac
ffa355335c66ad3f552b3c72199a58c1 *gd1981-03-14d1t002.flac
30f28c9ad45e43d11af5c956ce789b4f *gd1981-03-14d1t003.flac
44cf9af2d99286cd6b83bf58e3199754 *gd1981-03-14d1t004.flac
8337d915e4dbb2b4fd5df8f080eb3c8d *gd1981-03-14d1t005.flac
9e0216b17bae01b18a48f6994b7d3ef8 *gd1981-03-14d1t006.flac
96c1f0c22a147fd9cd53ecaf9fa21129 *gd1981-03-14d1t007.flac
4e2ee00fa3e747199b1e71840e630ffb *gd1981-03-14d1t008.flac
d0e36b96ee26e47cef3a24f1b54331f4 *gd1981-03-14d1t009.flac
71aa0fb06290d4346405ca8d5c4195d1 *gd1981-03-14d1t010.flac
b1be5d6e900470aa284ce6a332c5c310 *gd1981-03-14d1t011.flac
98d5a09441f7fdede37161b192af58ff *gd1981-03-14d2t001.flac
0f6122c4e9d9faea31ccd54ff678a29b *gd1981-03-14d2t002.flac
3b2ab560da54edf925e73025d83092c8 *gd1981-03-14d2t003.flac
ec85939c4cb7e9c670c6d612ca6d94ca *gd1981-03-14d2t004.flac
2421322d9ce428ba2731c9f6c6a9a60b *gd1981-03-14d2t005.flac
869e0b9797df589f5fa339142c118445 *gd1981-03-14d2t006.flac
93414ba53ca60c145339d785e7b44938 *gd1981-03-14d2t007.flac
c7ccd6dc4d27c1f26c2fd04c82f518e7 *gd1981-03-14d3t001.flac
9ecf8fc81bc0425c48d418903e9f9ebb *gd1981-03-14d3t002.flac
99b6fe85419419b4f71a4d86a03f9f64 *gd1981-03-14d3t003.flac
9fdea36ad1966d7e412a063a9ab3da8d *gd1981-03-14d3t004.flac
f60fc41a6c46a8be1846c35b1e12cfee *gd1981-03-14d3t005.flac
fc33641cd2d088f77a334e379120900a *gd1981-03-14d3t006.flac
a26b256d972662bf1435f03040ec8404 *gd1981-03-14d3t007.flac

Comments
Add Comment
Other Sources (comments)
Aud (?)-> CD-> EAC-> SHN;... (3) flac16; Recording by... (0) flac16; Recording... (0) flac24; Recording... (0) flac16; AUD: 3x... (1) flac16; Recording... (0) flac24; Cassette... (0) flac16; Source Info:... (0) flac24; Source Info:... (0)
Date User Comment