Browse Collections Artists Sources   Search Dates

Add Show    List Management    Help


Garcia 11/13/91
The Centrum, Worcester, MA
Comments Add Comment    Source Collectors    Add to Collection    Add to Want List    History
Source # 81368 Other Sources
Entered by Joe Jupille
Checksums ffp , md5
Disc Counts 2 / 2
Media Size
Date Circulated
Date Added
01/01/2007
01/02/2007
Source Summary JGB: John Mutterperl' s FOB Schoeps CMC 44 blue dot cards with 90 degree capsule offsets > 6' Monster M1000 cable -> Oade PS-> 1' Monster M1000 > Oade mod'd Panasonic Sv-255. Mics were hung from a necklace, just under chin height with roughly a 4 inch spread and 90 degree angle. Transfer: MAD > B. Fried DAT > B. Koucky DAT > Sony PCM-R500 playback > S/PDIF > Presonus Firebox > Firewire > PC, XP Pro > Wavelab 5 (recorded as 24 bit/48 KHz WAV) > Waves L3 Multimaximizer, high res CD rendering settings (Waves IDR type I dither/ultra shaping) > 16 bit/44.1 KHz WAV > CDWAV 1.9 > WAV > FLAC (level 8). Transfer and encoding by C.Ladner, 
Source Information - Download Text | Download Zip
Jerry Garcia Band
11/13/1991
The Centrum
Worcester, MA  

Taper: John Mutterperl.
Source:  FOB Schoeps CMC 44 blue dot cards with 90 degree capsule offsets > 6' Monster M1000 cable -> Oade PS-> 1' Monster M1000 > Oade mod'd Panasonic Sv-255. Mics were hung from a necklace, just under chin height with roughly a 4 inch spread and 90 degree angle.
Transfer:  MAD > B. Fried DAT > B. Koucky DAT > Sony PCM-R500 playback > S/PDIF > Presonus Firebox > Firewire > PC, XP Pro > Wavelab 5 (recorded as 24 bit/48 KHz WAV) > Waves L3 Multimaximizer, high res CD rendering settings (Waves IDR type I dither/ultra shaping) > 16 bit/44.1 KHz WAV > CDWAV 1.9 > WAV > FLAC (level 8). Transfer and encoding by C.Ladner.
Seeded @ bt.etree.org by the Green Mountain Bros, 1/2007.

Disc I - Set I
01  How Sweet It Is (To Be Loved By You)
02  They Love Each Other
03  When The Hunter Gets Captured By The Game
04  Dear Prudence
05  Like A Road
06  Money Honey
07  Senor (Tales Of Yankee Power)
08  Deal

Disc II - Set II
01  The Way You Do The Things You Do
02  You Never Can Tell
03  Waiting For A Miracle
04  Shining Star
05  Ain't No Bread In The Breadbox
06  My Sisters And Brothers
07  Midnight Moonlight

Comments:  
This recording is the same source as the shn set I circulated 4 years ago from a CDR source.  This flac fileset is derived from a higher bit/sample rate digital transfer of a lineaged DAT without the EAC/DAE generation.  The sound quality is spectacular for an audience recording and the performance is arguably one of the best of '91 outside the Warfield homebase.  Also this show features a rare live performance of "When The Hunter Gets Captured By The Game" (#8 of only 10 ever).

SHNTOOL LEN OUTPUT:
    length     expanded size   cdr  WAVE problems filename
     8:13.17       87005228    ---   --   ---xx   jgb1991-11-13d1t01.flac
     9:06.66       96469676    ---   --   ---xx   jgb1991-11-13d1t02.flac
     7:34.62       80231468    ---   --   ---xx   jgb1991-11-13d1t03.flac
    13:30.67      143041628    ---   --   ---xx   jgb1991-11-13d1t04.flac
     9:31.69      100886732    ---   --   ---xx   jgb1991-11-13d1t05.flac
     6:24.37       67824668    ---   --   ---xx   jgb1991-11-13d1t06.flac
     5:56.45       62904284    ---   --   ---xx   jgb1991-11-13d1t07.flac
     8:42.03       92087900    ---   --   ---xx   jgb1991-11-13d1t08.flac
    13:33.34      143493212    ---   --   ---xx   jgb1991-11-13d2t01.flac
     7:09.60       75816764    ---   --   ---xx   jgb1991-11-13d2t02.flac
     5:47.69       61373132    ---   --   ---xx   jgb1991-11-13d2t03.flac
    13:45.44      145633532    ---   --   ---xx   jgb1991-11-13d2t04.flac
     9:22.31       99209756    ---   --   ---xx   jgb1991-11-13d2t05.flac
     4:06.39       43486172    ---   --   ---xx   jgb1991-11-13d2t06.flac
     6:15.60       66291164    ---   --   ---xx   jgb1991-11-13d2t07.flac
   129:02.28     1365755316 B                     (totals for 15 files, 0.5971 overall compression ratio)
Show Checksums
ffp
jgb1991-11-13d1t01.flac:853a9b00290900ceeb8202f2c647bf06
jgb1991-11-13d1t02.flac:7351eb021965ddb6b213cf9cfcd0b468
jgb1991-11-13d1t03.flac:3634a44ce7b9dab34b1015ea312e1792
jgb1991-11-13d1t04.flac:6a27a95092fe1eef4afa7c146cd5056c
jgb1991-11-13d1t05.flac:e6a7b58828cd1c3124b3aa2471661f54
jgb1991-11-13d1t06.flac:e9d0cf7f93cb0cf58c09227600d8781c
jgb1991-11-13d1t07.flac:cdb3b79a4584d38b71ef1f00f626a633
jgb1991-11-13d1t08.flac:cb403d5d145665a64df998aa51614a26
jgb1991-11-13d2t01.flac:2330a3af081422fffedbd6123b26a2ac
jgb1991-11-13d2t02.flac:79746daae42327c5ec006bc1fea60c19
jgb1991-11-13d2t03.flac:3a5ea75849df1e2a488900863ae7653f
jgb1991-11-13d2t04.flac:2b24c3c23fa034dc4a7b6d3ad9f79496
jgb1991-11-13d2t05.flac:8c1f23b7f47a376bf8f4af9938f11887
jgb1991-11-13d2t06.flac:e8b44b25203b122fc6a395ecf7048240
jgb1991-11-13d2t07.flac:73f35798f68931d31a2d738f42a5a67f
md5
0507b1a0809e12788529c92797fb0848 *jgb1991-11-13d1t01.flac
bce40ca47bae1d150749f8ae5a5974fd *jgb1991-11-13d1t02.flac
78851c5582a9b2029ede3f480a2a4114 *jgb1991-11-13d1t03.flac
52d451aa6253b38ca8bef8a5d1f1a1b1 *jgb1991-11-13d1t04.flac
543c73a3125cfa0e51d29ffe984e3706 *jgb1991-11-13d1t05.flac
99547a3a189c5d2abc6dd197f4a587e5 *jgb1991-11-13d1t06.flac
1c327472fdac51ee3238a34d40250d1a *jgb1991-11-13d1t07.flac
52b5243d106f19ec5a459f8937912e70 *jgb1991-11-13d1t08.flac
8c3c3d92b931ccb87a3b2b00253e32bf *jgb1991-11-13d2t01.flac
deb9e7c069e43af76e048e5c5836235f *jgb1991-11-13d2t02.flac
c3299f9ffb88459a4ee627bb3ae19f88 *jgb1991-11-13d2t03.flac
e474e5ec7d2285149e3cc856ae8ee161 *jgb1991-11-13d2t04.flac
b621c17c4ef997b094a34d7e89d9ad10 *jgb1991-11-13d2t05.flac
2c99f91279c55dde8116bb46ea5b0f11 *jgb1991-11-13d2t06.flac
2e41c094db375c22c41617cd0d004699 *jgb1991-11-13d2t07.flac

Comments
Add Comment
Other Sources (comments)
Jerry Garcia Band: FOB... (0)
Date User Comment
12/09/2007 Grateful Darkstar I was under the impression that this was taped by Rich Gastwirt. I got it from him back in September 2006 but there was a problem with the tranfer.