Browse Collections Artists Sources   Search Dates

Add Show    List Management    Help


Grateful Dead 03/13/81
Utica Memorial Auditorium, Utica, NY
Comments Add Comment    Source Collectors    Add to Collection    Add to Want List    History
Source # 81392 Other Sources
Entered by Matt Vernon
Checksums ffp , flac-md5
Disc Counts 2 / 3
Media Size
Date Circulated
Date Added
01/04/2007
01/04/2007
Source Summary flac16; Recorded by Alan Zimmerman Master Audience Cassette; 2 Sennheiser 421s (Alan thinks)> Sony TC-158 (Fuji FX-I 90s) Transfer and FLAC encoding by David Minches: Master played back on Nakamichi Dragon > ART DI/O > Digital Audio Labs Card Deluxe soundcard > Cool Edit 2000 > flac encoding > FLAC 
  Archive
Source Information - Download Text | Download Zip
Grateful Dead
Friday, March 13, 1981
Utica Memorial Auditorium - Utica, NY

Recorded by Alan Zimmerman
Master Audience Cassette; 2 Sennheiser 421s (Alan thinks)> Sony TC-158 (Fuji FX-I 90s)
Transfer and FLAC encoding by David Minches:
Master played back on Nakamichi Dragon > ART DI/O > Digital Audio Labs Card Deluxe soundcard > Cool Edit 2000 > flac encoding > FLAC


Set 1:
d1t01 - Tuning
d1t02 - Shakedown Street->
d1t03 - Minglewood Blues
d1t04 - They Love Each Other->
d1t05 - El Paso
d1t06 - Jack A Roe
d1t07 - Little Red Rooster
d1t08 - High Time
d2t01 - Tuning
d2t02 - Cassidy->
d2t03 - Althea
d2t04 - The Music Never Stopped

Set 2:
d2t05 - Tuning
d2t06 - Cold Rain & Snow->
d2t07 - Samson & Delilah
d2t08 - It Must Have Been The Roses
d3t01 - Estimated Prophet->
d3t02 - Eyes Of The World->
d3t03 - Drums->//
d3t04 - Space->
d3t05 - Lost Sailor->
d3t06 - Saint Of Circumstance->
d3t07 - Wharf Rat->
d3t08 - Sugar Magnolia

Encore:
d3t09 - Don't Ease Me In


SHNTOOL LEN OUTPUT:

    length     expanded size    cdr  WAVE problems  fmt   ratio  filename
     1:27.20       15393884 B   ---   --   ---xx   flac  0.5051  gd1981-03-13d1t001.flac
    13:04.47      138408188 B   ---   --   ---xx   flac  0.5660  gd1981-03-13d1t002.flac
     8:11.39       86704172 B   ---   --   ---xx   flac  0.5753  gd1981-03-13d1t003.flac
     7:40.11       81169916 B   ---   --   ---xx   flac  0.5522  gd1981-03-13d1t004.flac
     4:48.52       50925548 B   ---   --   ---xx   flac  0.5420  gd1981-03-13d1t005.flac
     5:12.41       55133276 B   ---   --   ---xx   flac  0.5482  gd1981-03-13d1t006.flac
    10:08.10      107274764 B   ---   --   ---xx   flac  0.5577  gd1981-03-13d1t007.flac
     8:56.67       94708028 B   ---   --   ---xx   flac  0.5318  gd1981-03-13d1t008.flac
     0:09.41        1684076 B   ---   --   ---xx   flac  0.5011  gd1981-03-13d2t001.flac
     5:55.42       62720828 B   ---   --   ---xx   flac  0.5999  gd1981-03-13d2t002.flac
     8:51.62       93814268 B   ---   --   ---xx   flac  0.5655  gd1981-03-13d2t003.flac
     9:12.40       97466924 B   ---   --   ---xx   flac  0.5937  gd1981-03-13d2t004.flac
     0:22.64        4031372 B   ---   --   ---xx   flac  0.4691  gd1981-03-13d2t005.flac
     6:10.07       65284508 B   ---   --   ---xx   flac  0.5533  gd1981-03-13d2t006.flac
     9:09.66       96998876 B   ---   --   ---xx   flac  0.5574  gd1981-03-13d2t007.flac
     7:17.18       77129180 B   ---   --   ---xx   flac  0.5269  gd1981-03-13d2t008.flac
     0:58.55       10360604 B   ---   --   ---xx   flac  0.5079  gd1981-03-13d3t001.flac
    13:51.36      146673116 B   ---   --   ---xx   flac  0.5744  gd1981-03-13d3t002.flac
    12:14.65      129630524 B   ---   --   ---xx   flac  0.5764  gd1981-03-13d3t003.flac
     6:48.31       72044156 B   ---   --   ---xx   flac  0.5442  gd1981-03-13d3t004.flac
     3:06.20       32857484 B   ---   --   ---xx   flac  0.4677  gd1981-03-13d3t005.flac
     6:39.61       70527116 B   ---   --   ---xx   flac  0.5401  gd1981-03-13d3t006.flac
     6:48.14       72004172 B   ---   --   ---xx   flac  0.5641  gd1981-03-13d3t007.flac
    10:20.56      109499756 B   ---   --   ---xx   flac  0.5168  gd1981-03-13d3t008.flac
    10:02.69      106355132 B   ---   --   ---xx   flac  0.5734  gd1981-03-13d3t009.flac
     3:20.68       35439980 B   ---   --   ---xx   flac  0.5887  gd1981-03-13d3t010.flac
   180:51.52     1914239848 B                            0.5573  (26 files)
Show Checksums
ffp
gd1981-03-13d2t003.flac:73febf70750c1670f378256e193247c2
gd1981-03-13d2t004.flac:c5a2cacfc6802312a8be4aca50e799bb
gd1981-03-13d2t005.flac:a7cde017ca84a66284c14ed461ff9008
gd1981-03-13d2t006.flac:ed5a50602854813011cac4c98b3d2ab8
gd1981-03-13d2t007.flac:eb8cdb15818eef483927dcde7cf7e065
gd1981-03-13d2t008.flac:1c03309a3318e9148ddbc75b9dbeb9b3
gd1981-03-13d3t001.flac:84da1ea57d5900c3af1bd2129e408bb2
gd1981-03-13d3t002.flac:8d9d37664192439a344c1fbbf2bd415a
gd1981-03-13d3t003.flac:9faaf222c910b3b33dd464dbd52b1f84
gd1981-03-13d3t004.flac:400bb9f943756491e0f3db4e2816fdc6
gd1981-03-13d3t005.flac:a42c1938f885b9490000d93aa846168a
gd1981-03-13d3t006.flac:04e9a67391a0fa34110f5410d272a49a
gd1981-03-13d3t007.flac:846641f9dde7a48f6456afcf2a14ecd7
gd1981-03-13d3t008.flac:f04af21f1b5b609e29e7e84342ff0d7c
gd1981-03-13d3t009.flac:930f11e75fb74a03828492a75852c762
gd1981-03-13d3t010.flac:5bb12ef268d71a2774b75987d024fdae
gd1981-03-13d1t001.flac:e68c3811836e2a9a2d68a0aebb623937
gd1981-03-13d1t002.flac:0ea52682f1c30d5be1eb59740c5e00bc
gd1981-03-13d1t003.flac:fc9704895ce40af6e9070bc42f9bcf63
gd1981-03-13d1t004.flac:1301db81f30f58a788dec9518a9fedf1
gd1981-03-13d1t005.flac:53c531dd1ccd5e75bd3cd821a7d3f724
gd1981-03-13d1t006.flac:c224f224ca1eac8501344db6da1d6f6e
gd1981-03-13d1t007.flac:b005b43955df884a8e7c899fc4d827db
gd1981-03-13d1t008.flac:8d96917a0a24e00bedc8b6190a5a1ab3
gd1981-03-13d2t001.flac:edbcbee3c84eda74913791f6251dc884
gd1981-03-13d2t002.flac:ea48ffa8804a2acdbd592c2726c1d1a3
flac-md5
53384b8044324e066b86a6562eaba1d0 *gd1981-03-13d1t001.flac
0c2c9e43296aa60c0d1a75584e2cd8ff *gd1981-03-13d1t002.flac
a7efbe13d744bff456222465fe15f2cf *gd1981-03-13d1t003.flac
e55ce621aa0fece681b65e0c44173752 *gd1981-03-13d1t004.flac
babe19e195f499d34dc6e03b81849d31 *gd1981-03-13d1t005.flac
e9f6c7fe431efc25352c83923e863ef3 *gd1981-03-13d1t006.flac
1121f827b098cfc0c9cd9eee61ce6e32 *gd1981-03-13d1t007.flac
7836c8d46e492cf50116e8a89faae671 *gd1981-03-13d1t008.flac
77ee7e82c03de5c767f2329217b4eca7 *gd1981-03-13d2t001.flac
64816705b60055bc044f51ff7ce38598 *gd1981-03-13d2t002.flac
b690eac05d28bffc4f96da4704e0ccf0 *gd1981-03-13d2t003.flac
c131514b159a31e28355a108031710ee *gd1981-03-13d2t004.flac
3d0bbf31368ab7c9a40083e5bc38c9a8 *gd1981-03-13d2t005.flac
5c518eb90162a5cd7e678e5a421f00f5 *gd1981-03-13d2t006.flac
510757248b9374a5d5de7d4e8679db40 *gd1981-03-13d2t007.flac
ec66e719dd68c49838779a38dca7b994 *gd1981-03-13d2t008.flac
9c25564a99029fa7732541e6384cfe26 *gd1981-03-13d3t001.flac
6822f6a8ea8daefbf2fc92af7b4aac0d *gd1981-03-13d3t002.flac
566437fc7557ec8850aeea4fd2502410 *gd1981-03-13d3t003.flac
63608c0de3d77653f5c4f4a82b798e76 *gd1981-03-13d3t004.flac
bed55a758f6ace62843a7067aeae50e5 *gd1981-03-13d3t005.flac
c8391646dd0e775cd7c571a873d514aa *gd1981-03-13d3t006.flac
8f56c40072658a5783d37c669345c71c *gd1981-03-13d3t007.flac
b82b4ab189d19884c9191ae167877199 *gd1981-03-13d3t008.flac
b7b7936aa532690aec6a6a75dd690f70 *gd1981-03-13d3t009.flac
83cdaa55059f518155df75bb1d170620 *gd1981-03-13d3t010.flac

Comments
Add Comment
Other Sources (comments)
Recording by Jim Wise:... (0) flac16; Second Set... (0) flac16; Recording... (0) flac16; Recorded by... (0) flac16; Partial Set... (1) flac16; Partial Set... (0) flac16/48kHz;... (0) flac24; Cassette... (0) flac24; Source: AKG... (0)
Date User Comment