Browse Collections Artists Sources   Search Dates

Add Show    List Management    Help


Grateful Dead 07/02/89
Sullivan Stadium, Foxboro, MA
Comments Add Comment    Source Collectors    Add to Collection    Add to Want List    History
Source # 81459 Other Sources
Entered by Matt Vernon
Checksums ffp , flac-md5
Disc Counts 2 / 3
Media Size
Date Circulated
Date Added
01/08/2007
01/08/2007
Source Summary flac16; Source: Audience FOB Recording Media: AKY Recording Supply Custom Wound BASF 100% CrO2 Cassette Lineage: FOB AKG C460b pre's with ck61uls heads > Uher 240 > Nak DR-1 >Apogee 200 Rosetta >Firewire >Apple G5 >Bias Peak(24/96WAV) > Wavelab 5 > Waves L3 Multimaximizer (threshold -3.0 dB/ceiling -0.1 dB) > rendered to 16 bit/44.1 KHz WAV using UV22-HR>CDWAV 1.9 >FLAC(level 8) Taper: Danny Thomson Transfer: Derek McCabe Mastering: Chris Ladner 
  Archive
Source Information - Download Text | Download Zip
Please go to http://www.motb.org/official_releases.html to download artwork for these CD's
MOTB Release: #007 24-bit/96Khz & 16-bit/44.1Khz versions Release Date: January 10, 2007
Band: Grateful Dead
Date: July 2, 1989
Venue: Sullivan Stadium
Location: Foxboro, MA
Source: Audience FOB Recording
Media: AKY Recording Supply Custom Wound BASF 100% CrO2 Cassette
Lineage: FOB AKG C460b pre's with ck61uls heads > Uher 240 > Nak DR-1 >Apogee 200 Rosetta >Firewire >Apple G5 >Bias Peak(24/96WAV) > Wavelab 5 > Waves L3 Multimaximizer (threshold -3.0 dB/ceiling -0.1 dB) > rendered to 16 bit/44.1 KHz WAV using UV22-HR>CDWAV 1.9 >FLAC(level 8)
Taper:  Danny Thomson
Transfer: Derek McCabe
Mastering:  Chris Ladner (See Notes)

Setlist:  
CD ONE
Set I:
01 Playin' In The Band->
02 Crazy Fingers->
03 Wang Dang Doodle
04 We Can Run But We Can't Hide
05 Tennessee Jed
06 Queen Jane Approximately
07 To Lay Me Down
08 Cassidy
09 Don't Ease Me In

CD TWO
Set II:
01 Friend Of The Devil
02 Truckin' >
03 He's Gone >
04 Eyes Of The World >
05 Drums >

CD THREE
Set II cont'd:
01 Jam->
02 The Wheel->
03 Dear Mr. Fantasy->
04 Hey Jude Reprise->
05 Sugar Magnolia
06 E: The Mighty Quinn

Notes:
- Encore from FOB Sennheiser 441s Master AUD from Bill Koucky, transferred on Nak DR-2 > Presonus Firebox @ 24/96, wavelab.
- first notes of FOTD/start of second set missing.  on Bill's tape this part is also not recorded well with what sounds like a scramble to get things rolling again.
- Second set flip at the 45:12 second mark during a lull, crossfaded into seamlessness - currently at the 3:12 mark of space, d3t01.

SHNTOOL Output:
    length     expanded size   cdr  WAVE problems filename
     2:14.48       23750540    ---   --   ---xx   gd1989-07-02d1t01.flac
     5:21.05       56636204    ---   --   ---xx   gd1989-07-02d1t02.flac
     7:38.70       80955884    ---   --   ---xx   gd1989-07-02d1t03.flac
     8:10.08       86454860    ---   --   ---xx   gd1989-07-02d1t04.flac
     5:24.22       57205388    ---   --   ---xx   gd1989-07-02d1t05.flac
     8:15.34       87398012    ---   --   ---xx   gd1989-07-02d1t06.flac
     6:37.63       70179020    ---   --   ---xx   gd1989-07-02d1t07.flac
    10:57.51      116014796    ---   --   ---xx   gd1989-07-02d1t08.flac
     6:01.53       63805100    ---   --   ---xx   gd1989-07-02d1t09.flac
     3:11.34       33772412    ---   --   ---xx   gd1989-07-02d1t10.flac
    11:24.13      120688220    ---   --   ---xx   gd1989-07-02d2t01.flac
     7:05.21       75019436    ---   --   ---xx   gd1989-07-02d2t02.flac
    13:56.09      147491612    ---   --   ---xx   gd1989-07-02d2t03.flac
    10:44.04      113611052    ---   --   ---xx   gd1989-07-02d2t04.flac
     6:50.39       72415772    ---   --   ---xx   gd1989-07-02d2t05.flac
    11:27.24      121243292    ---   --   ---xx   gd1989-07-02d3t01.flac
     5:02.31       53345756    ---   --   ---xx   gd1989-07-02d3t02.flac
     6:58.42       73834028    ---   --   ---xx   gd1989-07-02d3t03.flac
     3:50.50       40689644    ---   --   ---xx   gd1989-07-02d3t04.flac
     9:15.57       98036108    ---   --   ---xx   gd1989-07-02d3t05.flac
     5:21.59       56763212    ---   --   ---xx   gd1989-07-02d3t06.flac
   155:49.62     1649310348 B                     (totals for 21 files, 0.6246 overall compression ratio)
Show Checksums
ffp
gd1989-07-02d1t01.MOTB.flac:0ba0a60d2a57c4c01f1b0113ddf2db47
gd1989-07-02d1t02.MOTB.flac:2bcd092f92abc09c933a7b1b4ea01d67
gd1989-07-02d1t03.MOTB.flac:8f934fdf74da5dad244b9d83fbd7a2cc
gd1989-07-02d1t04.MOTB.flac:49f41eb8af4912ad86ac53977f3eff03
gd1989-07-02d1t05.MOTB.flac:36c4675f6c051d14eeb3855235c7a9b6
gd1989-07-02d1t06.MOTB.flac:b94b6c8b97cc8fe99f45ff7b20173a0a
gd1989-07-02d1t07.MOTB.flac:013686d5011af3afc754ee5c118145ec
gd1989-07-02d1t08.MOTB.flac:ffe4a19149357353215e3ceacf340fb0
gd1989-07-02d1t09.MOTB.flac:baf7986b6007501e4325d414c8192aa7
gd1989-07-02d1t10.MOTB.flac:87d821d1b1259bc09edb56e04c7c197a
gd1989-07-02d2t01.MOTB.flac:e4935bf82a500a6d0fe1cf0f7131eadf
gd1989-07-02d2t02.MOTB.flac:37bffddabfdcbff52c1321ac5188b02c
gd1989-07-02d2t03.MOTB.flac:53aff5447b4829709a14719954683c80
gd1989-07-02d2t04.MOTB.flac:d0da979a5106d2b4ad9b0b02c3669bf9
gd1989-07-02d2t05.MOTB.flac:5da4477e5f3f531fec27d9191afb262b
gd1989-07-02d3t01.MOTB.flac:29eca66d1bd35a81ecfb8b9b880d2fb6
gd1989-07-02d3t02.MOTB.flac:432868f5d601f2e9d6abf1c4303fc5a4
gd1989-07-02d3t03.MOTB.flac:0579ceefff67a808ecc092287703b28f
gd1989-07-02d3t04.MOTB.flac:cbeabda69c9fc4fc4ea164eae8856860
gd1989-07-02d3t05.MOTB.flac:7098df218b09fd3abefb96367e3c44c6
gd1989-07-02d3t06.MOTB.flac:c0e5995ed45b0549434ab96fee8d8109
flac-md5
682920fa38a43173d6c4bec9776f704b *gd1989-07-02d1t01.MOTB.flac
5cc3628fe7c34678189a06c6ba86eb43 *gd1989-07-02d1t02.MOTB.flac
0f12f85f6fb787f160874335283aa410 *gd1989-07-02d1t03.MOTB.flac
5306652b9a3612cfa6e9b07fe79b7d2c *gd1989-07-02d1t04.MOTB.flac
155a931efda0ee4b29ad31573b51080e *gd1989-07-02d1t05.MOTB.flac
bf55987f90b30f650bd556ca8318f476 *gd1989-07-02d1t06.MOTB.flac
d5aeacc2da902502fb43156ff6845220 *gd1989-07-02d1t07.MOTB.flac
067b41b27c7b2d1aac45375bfd2d76d4 *gd1989-07-02d1t08.MOTB.flac
d20f57688dfea3cfef57286f0fd628e3 *gd1989-07-02d1t09.MOTB.flac
6d02c9d1ecbb04a7281a9c35966d6b84 *gd1989-07-02d1t10.MOTB.flac
92c2b9acba221dc3acd69919ca0fd13f *gd1989-07-02d2t01.MOTB.flac
0001e51b4dac178bc3dec593de572c83 *gd1989-07-02d2t02.MOTB.flac
8481a85ac40fbb2e8cbdd2b66b72d21b *gd1989-07-02d2t03.MOTB.flac
4fdb8165dbcc876b3dd48fec74aa0c26 *gd1989-07-02d2t04.MOTB.flac
5acd50d1374a7506e9beb7ea6f25dcef *gd1989-07-02d2t05.MOTB.flac
bed89a73b1b6e573db96b4279b29c842 *gd1989-07-02d3t01.MOTB.flac
cc2ffbbf82467678db0b2c3cef3f3e6a *gd1989-07-02d3t02.MOTB.flac
058d87fac76559d998e6d905e5fe7900 *gd1989-07-02d3t03.MOTB.flac
15e957ca52602d08eb0fe70280f88539 *gd1989-07-02d3t04.MOTB.flac
f8a8136993a6d758b3b5c7c1b5e59f8f *gd1989-07-02d3t05.MOTB.flac
347179e7d46b4074e39d4d8e26d63e73 *gd1989-07-02d3t06.MOTB.flac

Comments
Add Comment
Other Sources (comments)
FOB Schoeps CMC42s spaced... (2) Digital Audience - Jill &... (0) flac16; AKG... (1) flac16; FOB Schoeps... (0) flac16; SRC: FOB... (0) flac24; SRC: FOB... (1) flac24/96; Taper:... (0) flac24; FOB AUD:... (0) flac16; FOB AUD:... (0) flac16; Nakamichi... (0) flac16; Source:... (0) flac16; Source: AKG... (1) flac16; Source:... (0) flac16; Ted Mattes... (0) flac24; Recording... (0) flac16; Recording... (0)
Date User Comment