Browse Collections Artists Sources   Search Dates

Add Show    List Management    Help


Grateful Dead 03/30/89
Greensboro Coliseum, Greensboro, NC
Comments Add Comment    Source Collectors    Add to Collection    Add to Want List    History
Source # 81531 Other Sources
Entered by Matt Vernon
Checksums ffp , flac-md5
Disc Counts 2 / 2
Media Size
Date Circulated
Date Added
01/12/2007
01/12/2007
Source Summary flac16; Recording Info: SBD -> Cassette Master (TDK MA-XG90) Transfer Info: Cassette Master (Tascam 122mkII) -> Apogee MiniMe (24bit/48k) -> Samplitude Professional v8.01 -> FLAC/16 All Transfers and Mastering By Charlie Miller 
  Archive
Source Information - Download Text | Download Zip
Grateful Dead - March 30, 1989
Greensboro Coliseum - Greensboro, NC

Recording Info:
SBD -> Cassette Master (TDK MA-XG90)

Transfer Info:
Cassette Master (Tascam 122mkII) -> Apogee MiniMe (24bit/48k) ->
Samplitude Professional v8.01 -> FLAC/16
(2 Discs Audio / 2 Discs FLAC)

All Transfers and Mastering By Charlie Miller
charliemille[email protected]
December 15, 2006

Patch Info:
(FOB) Sennheiser 421 -> Cassette Master -> CD (By Mark Horvath)
Space (1:55 - 2:02)

Notes:
-- 2nd Set is seamless
-- Thanks to Paul Scotton and Joani Walker for the tapes

Set 1:
d1t01 - Tuning
d1t02 - Bertha ->
d1t03 - Jack Straw
d1t04 - Row Jimmy
d1t05 - Blow Away
d1t06 - When I Paint My Masterpiece
d1t07 - Bird Song ->
d1t08 - The Promised Land

Set 2:
d1t09 - Tuning
d1t10 - China Cat Sunflower ->
d1t11 - I Know You Rider
d2t01 - Looks Like Rain ->
d2t02 - He's Gone ->
d2t03 - Drums ->
d2t04 - Space ->
d2t05 - The Other One ->
d2t06 - Stella Blue ->
d2t07 - Sugar Magnolia

Encore:
d2t08 - Knockin' On Heaven's Door


SHNTOOL OUTPUT:
    length     expanded size   cdr  WAVE problems filename
     1:13.21       12926636    ---   --   -----   gd89-03-30d1t01.wav
     6:43.54       71216252    ---   --   -----   gd89-03-30d1t02.wav
     8:25.03       89089100    ---   --   -----   gd89-03-30d1t03.wav
    13:10.51      139475996    ---   --   -----   gd89-03-30d1t04.wav
     8:29.29       89855852    ---   --   -----   gd89-03-30d1t05.wav
     6:21.59       67347212    ---   --   -----   gd89-03-30d1t06.wav
    12:02.49      127476092    ---   --   -----   gd89-03-30d1t07.wav
     4:51.09       51353612    ---   --   -----   gd89-03-30d1t08.wav
     1:01.63       10908620    ---   --   -----   gd89-03-30d1t09.wav
     6:10.58       65404460    ---   --   -----   gd89-03-30d1t10.wav
     4:54.60       52002764    ---   --   -----   gd89-03-30d1t11.wav
     8:45.42       92708828    ---   --   -----   gd89-03-30d2t01.wav
    15:41.68      166152380    ---   --   -----   gd89-03-30d2t02.wav
     9:05.25       96196844    ---   --   -----   gd89-03-30d2t03.wav
     8:42.68       92240780    ---   --   -----   gd89-03-30d2t04.wav
     9:59.51      105783596    ---   --   -----   gd89-03-30d2t05.wav
     9:03.08       95804060    ---   --   -----   gd89-03-30d2t06.wav
     9:09.60       96984764    ---   --   -----   gd89-03-30d2t07.wav
     7:28.39       79118972    ---   --   -----   gd89-03-30d2t08.wav
   151:21.67     1602046820 B                     (totals for 19 files)
Show Checksums
ffp
gd89-03-30d1t01.flac:decec5396f1ccf153db83d4c2083b0ce
gd89-03-30d1t02.flac:923a4fa14e6e77b8d52dfbc8120df030
gd89-03-30d1t03.flac:4055d503fdd3577b15a3a768965b9346
gd89-03-30d1t04.flac:5ccfcc944bebc1f0f00e820df4a13c84
gd89-03-30d1t05.flac:da4eafe077d940776558480e7fd3f483
gd89-03-30d1t06.flac:7f6ee9a2877b18243ee6ca87d6f9df7f
gd89-03-30d1t07.flac:18234364fb5e5f3a1708e6e4ad67cf8f
gd89-03-30d1t08.flac:6abd649bfd5600b676513ffd4e9a0a54
gd89-03-30d1t09.flac:ac9feb04e7553015cc96a45d2b8ac8a1
gd89-03-30d1t10.flac:1178530df24c2f9ecaa177bf87804d98
gd89-03-30d1t11.flac:f852b45629b81202f7df549040b7bb18
gd89-03-30d2t01.flac:c40ea2cb2951bdd3719ec61b3fb074b5
gd89-03-30d2t02.flac:1ec7ef7e888d968a8a5f0f6821fb66f5
gd89-03-30d2t03.flac:cebc8df458f22211a91b0735db8700f6
gd89-03-30d2t04.flac:2b0f42a272451ae2ad81844cc08853a7
gd89-03-30d2t05.flac:5d4b31f55dc233ff0a833e05289045a0
gd89-03-30d2t06.flac:f567c56c60d99f98d0d088e213d4cd01
gd89-03-30d2t07.flac:b3ab1f50df7f82ae9cbff7a663c522ae
gd89-03-30d2t08.flac:a92e6e15536ef21900a1b987dbd79115
flac-md5
3933a08dee802b03b3c767aa0980f455 *gd89-03-30d1t01.flac
5b55f364202a74503e3b17d4154137f1 *gd89-03-30d1t02.flac
8c6d170af8031f02a688298112f7c904 *gd89-03-30d1t03.flac
0da67bf7d76f3e6135ccd9f5e831644f *gd89-03-30d1t04.flac
303710401380051dbf99f24f37a4ca80 *gd89-03-30d1t05.flac
43c5b87a8e426e40c4c6a25137c202df *gd89-03-30d1t06.flac
635c2f83ca07c3735f9400415d55510b *gd89-03-30d1t07.flac
004fc23e29bd20f491872ea6e3ffd71a *gd89-03-30d1t08.flac
9314a8e62917931dbf29dbfe2f641caa *gd89-03-30d1t09.flac
3de66d8195c9b65cc5c0bf48a4f797b6 *gd89-03-30d1t10.flac
70eba0720bcda030790d4470f205b99c *gd89-03-30d1t11.flac
6298a126949ae054c3b1ebc68da8a66f *gd89-03-30d2t01.flac
86bf94226fe692ec91caa4790f716e8d *gd89-03-30d2t02.flac
841ce874562acfd2fda7cfbb2f1ed308 *gd89-03-30d2t03.flac
7839ed22343d4ffe17a8988802591bf0 *gd89-03-30d2t04.flac
f8e6b99e8e01602e1f094c38d2400cc9 *gd89-03-30d2t05.flac
56f27b159e2e3bff562f773272fbdf9d *gd89-03-30d2t06.flac
c70750e803df390a60b6305607ad0619 *gd89-03-30d2t07.flac
a816b2fe599367f780623b30f726a9e3 *gd89-03-30d2t08.flac

Comments
Add Comment
Other Sources (comments)
Mark Horvath FOB Senn.... (0) flac16; Set 1 only:... (1) flac24; Master... (0) flac16; Master... (0) flac16; Source: AKG... (0) flac16/48kHz;... (0) flac16; Source Info:... (0)
Date User Comment