Browse Collections Artists Sources   Search Dates Setlists

Add Show    List Management    Forums    Help


Grateful Dead 03/28/69
Student Center, Modesto Jr. College, Modesto, CA
Comments Add Comment    Source Collectors    Add to Collection    Add to Want List    History
Source # 81543 Other Sources
Entered by Matt Vernon
Checksums ffp , flac-md5
Disc Counts 1 / 2
Media Size
Date Circulated
Date Added
01/12/2007
01/12/2007
Source Summary flac16; Recording Info: SBD -> Master Reel -> Cassette -> Dat Transfer Info: Dat -> Samplitude Professional v8.01 -> FLAC All Transfers and Mastering By Charlie Miller 
  Archive
Source Information - Download Text | Download Zip
Grateful Dead - March 28, 1969
Student Center, Modesto, CA
(Modesto Jr. College)

Recording Info:
SBD -> Master Reel -> Cassette -> Dat

Transfer Info:
Dat -> Samplitude Professional v8.01 -> FLAC
(2 Discs Audio / 1 Disc FLAC)

All Transfers and Mastering By Charlie Miller
charliemiller87@earthlink.net
January 11, 2007

Patch Info:
SBD -> Cassette Master -> Dat -> CD supplies
The Eleven (5:54 - 6:09)
All of Set 2

Notes:
-- Disc change is seamless
-- Thanks to Rob Bertrando for the patch source
-- The start of Schoolgirl is clipped, not too much is missing

Set 1:
d1t01 - //Good Morning Little Schoolgirl
d1t02 - Dark Star ->
d1t03 - St. Stephen ->
d1t04 - The Eleven ->
d1t05 - Death Don't Have No Mercy
d2t01 - Turn On Your Lovelight

Set 2:
d2t02 - Cryptical Envelopment ->
d2t03 - Drums ->
d2t04 - The Other One ->
d2t05 - Cryptical Envelopment


SHNTOOL OUTPUT:
    length     expanded size   cdr  WAVE problems filename
    11:43.67      124166828    ---   --   -----   gd69-03-28d1t01.wav
    22:45.55      240915404    ---   --   -----   gd69-03-28d1t02.wav
     7:15.38       76823420    ---   --   -----   gd69-03-28d1t03.wav
    14:04.16      148919276    ---   --   -----   gd69-03-28d1t04.wav
     9:57.29      105379052    ---   --   -----   gd69-03-28d1t05.wav
    24:16.18      256880780    ---   --   -----   gd69-03-28d2t01.wav
     2:04.03       21880700    ---   --   -----   gd69-03-28d2t02.wav
     0:17.33        3076460    ---   --   -----   gd69-03-28d2t03.wav
     8:38.36       91459916    ---   --   -----   gd69-03-28d2t04.wav
    10:59.49      116362892    ---   --   -----   gd69-03-28d2t05.wav
   112:02.44     1185864728 B                     (totals for 10 files)
Show Checksums
ffp
gd69-03-28d1t01.flac:47d580cba30bc5023adbd88768b45680
gd69-03-28d1t02.flac:433b65cf1a104432d1e91f4acf0ee817
gd69-03-28d1t03.flac:bfadef5327a2cbaf3aa2ca2bb66efe9d
gd69-03-28d1t04.flac:e75b085f464897529b4dc5d079e9d9be
gd69-03-28d1t05.flac:3dab4e62465ad28b431cca233688e491
gd69-03-28d2t01.flac:289900c299291c2d445440d0c17ec3e2
gd69-03-28d2t02.flac:211da1dd28ef01a198e619665b9c3779
gd69-03-28d2t03.flac:0c93bf7756b03448e33b27757350e6ec
gd69-03-28d2t04.flac:6502f74f22792c49b4976f476899f9c5
gd69-03-28d2t05.flac:14b041361382bf4997488ebffe483de8
flac-md5
88e087d140489d77c3845298661c2083 *gd69-03-28d1t01.flac
56caaa664f221d56be16220620fecb81 *gd69-03-28d1t02.flac
69330b98b3d61374496b584a628a8e70 *gd69-03-28d1t03.flac
03c6665650d3dfefad4d34126d5b41bf *gd69-03-28d1t04.flac
66203d5e3089f83b9c64c3dd2827a7d1 *gd69-03-28d1t05.flac
6168471086bb29422a0e8fb693295b46 *gd69-03-28d2t01.flac
ceefbde015bca0b05c7300aa8298fc88 *gd69-03-28d2t02.flac
0045be54ba0a114ae72835b37a956d96 *gd69-03-28d2t03.flac
0d72d0ee0217fe36f7a5db8469c17998 *gd69-03-28d2t04.flac
03e1f5c856024916973df3f318094af5 *gd69-03-28d2t05.flac

Comments
Add Comment
Other Sources (comments)
MSR> C> D> CD; via Frank Bove (0) flac16; Source:... (0) flac24; SBD >>... (0) flac16; Recording... (0) flac16; Recording... (0)
Date User Comment
01/29/2010 rbbert The patch source actually has a Beta PCM step as well; I forgot (oops).