Browse Collections Artists Sources   Search Dates

Add Show    List Management    Help


Grateful Dead 12/27/79
Oakland Auditorium Arena, Oakland, CA
Comments Add Comment    Source Collectors    Add to Collection    Add to Want List    History
Source # 81601 Other Sources
Entered by Matt Vernon
Checksums ffp , flac-md5
Disc Counts 1 / 1
Media Size
Date Circulated
Date Added
01/13/2007
01/14/2007
Source Summary flac16; 1st Set Only, Recording Info: SBD -> Cassette Master -> Dat -> CD Transfer Info: CD -> Samplitude Professional v7.02 -> FLAC All Transfers and Mastering By Charlie Miller 
  Archive
Source Information - Download Text | Download Zip
Grateful Dead - December 27, 1979
Oakland Auditorium - Oakland, CA
**1st Set Only**

Recording Info:
SBD -> Cassette Master -> Dat -> CD

Transfer Info:
CD -> Samplitude Professional v7.02 -> FLAC
(1 Disc Audio / 1 Disc FLAC)

All Transfers and Mastering By Charlie Miller
[email protected]
July 26, 2006

Notes:
-- Thanks to Paul Scotton for the disc

Set 1:
d1t01 - Jack Straw
d1t02 - They Love Each Other
d1t03 - Cassidy
d1t04 - Peggy-O ->
d1t05 - El Paso
d1t06 - Don't Ease Me In
d1t07 - Beat It On Down The Line
d1t08 - Deal


SHNTOOL OUTPUT:
    length     expanded size   cdr  WAVE problems filename
     7:08.69       75661532    ---   --   -----   gd79-12-27d1t01.wav
     7:33.49       80024492    ---   --   -----   gd79-12-27d1t02.wav
     6:06.01       64564796    ---   --   -----   gd79-12-27d1t03.wav
     7:22.25       78027644    ---   --   -----   gd79-12-27d1t04.wav
     5:06.67       54136028    ---   --   -----   gd79-12-27d1t05.wav
     4:28.46       47383436    ---   --   -----   gd79-12-27d1t06.wav
     3:25.28       36227900    ---   --   -----   gd79-12-27d1t07.wav
     5:11.71       55027436    ---   --   -----   gd79-12-27d1t08.wav
    46:23.56      491053264 B                     (totals for 8 files)
Show Checksums
ffp
gd79-12-27d1t01.flac:abd228f94b1a76ee0ac0196a107df0ee
gd79-12-27d1t02.flac:3d758933521720f7da38ad3b3ef6ce8b
gd79-12-27d1t03.flac:ad557b2a7fb6d5cc457a14dd947ffe45
gd79-12-27d1t04.flac:6f2fbe50aa9ea2f17603f22f63f7287f
gd79-12-27d1t05.flac:bdbb1d0ea078cfa4b808adb39145663e
gd79-12-27d1t06.flac:e2c4a865c568113136fb790be8f4d9ff
gd79-12-27d1t07.flac:98320ad59e9247d6fa36c77825bfff2d
gd79-12-27d1t08.flac:1a8b05c1d50dbd5fadf3bf57978b1dcf
flac-md5
b18df7b3bff555f3219fd6fc769407a7 *gd79-12-27d1t01.flac
c48650de424c2639e2ffc19f7e0dcf33 *gd79-12-27d1t02.flac
09136e04069138339280a1dae349f37a *gd79-12-27d1t03.flac
c0bc5327eb660f74bef786ee08fc43a0 *gd79-12-27d1t04.flac
90747a478aa39f4fdfaafd52144e6391 *gd79-12-27d1t05.flac
fb9c9e2c16ffa0a2bb83a288e085b3c5 *gd79-12-27d1t06.flac
34e79c235aac83a009144e271456f549 *gd79-12-27d1t07.flac
b6aa203f799e359fccb741a80bf9fcb7 *gd79-12-27d1t08.flac

Comments
Add Comment
Other Sources (comments)
Recording by Steve Rolfe:... (0) Recording by Steve Rolfe:... (0) flac16; Recording by... (0) flac16; Recording by... (0) flac16; Recorded By... (0)
Date User Comment