Browse Collections Artists Sources   Search Dates

Add Show    List Management    Help


Grateful Dead 08/12/87
Red Rocks Amphitheatre, Morrison, CO
Comments Add Comment    Source Collectors    Add to Collection    Add to Want List    History
Source # 81677 Other Sources
Entered by Matt Vernon
Checksums ffp , flac-md5
Disc Counts 2 / 2
Media Size
Date Circulated
Date Added
01/15/2007
01/15/2007
Source Summary flac16; Recording Info: SBD -> Cassette Master -> Cassette (Maxell XLIIS) Transfer Info: Cassette (Tascam 122mkII) -> Apogee MiniMe (24bit/48k) -> Samplitude Professional v8.01 -> FLAC/16 All Transfers and Mastering By Charlie Miller 
  Archive
Source Information - Download Text | Download Zip
Grateful Dead - August 12, 1987
Red Rocks Amphitheatre - Morrison, CO

Recording Info:
SBD -> Cassette Master -> Cassette (Maxell XLIIS)

Transfer Info:
Cassette (Tascam 122mkII) -> Apogee MiniMe (24bit/48k) ->
Samplitude Professional v8.01 -> FLAC/16
(2 Discs Audio / 2 Discs FLAC)

All Transfers and Mastering By Charlie Miller
[email protected]
December 18, 2006

Patch Info:
Nakamichi 100 -> Cassette Master -> Dat -> CD supplies:
Space (4:25 - 4:35)

Notes:
-- 2nd Set is seamless
-- Thanks to Paul Scotton and Joani Walker for the tapes

Set 1:
d1t01 - Tuning
d1t02 - Hell In A Bucket ->
d1t03 - Sugaree
d1t04 - Never Trust A Woman
d1t05 - Cumberland Blues ->
d1t06 - Mexicali Blues
d1t07 - Friend Of The Devil
d1t08 - My Brother Esau
d1t09 - Bird Song ->
d1t10 - The Music Never Stopped

Set 2:
d2t01 - China Cat Sunflower ->
d2t02 - I Know You Rider
d2t03 - Man Smart (Woman Smarter) ->
d2t04 - Terrapin Station ->
d2t05 - Drums ->
d2t06 - Space ->
d2t07 - The Other One ->
d2t08 - Dear Mr. Fantasy ->
d2t09 - Wharf Rat ->
d2t10 - Turn On Your Lovelight

Encore:
d2t11 - The Mighty Quinn (Quinn The Eskimo)


SHNTOOL OUTPUT:
    length     expanded size   cdr  WAVE problems filename
     1:07.59       11957612    ---   --   -----   gd87-08-12d1t01.wav
     6:00.71       63671036    ---   --   -----   gd87-08-12d1t02.wav
    11:32.42      122167628    ---   --   -----   gd87-08-12d1t03.wav
     5:21.27       56687948    ---   --   -----   gd87-08-12d1t04.wav
     4:28.38       47364620    ---   --   -----   gd87-08-12d1t05.wav
     5:23.12       57005468    ---   --   -----   gd87-08-12d1t06.wav
     8:39.49       91666892    ---   --   -----   gd87-08-12d1t07.wav
     4:40.40       49486124    ---   --   -----   gd87-08-12d1t08.wav
     9:10.14       97052972    ---   --   -----   gd87-08-12d1t09.wav
     7:37.52       80737148    ---   --   -----   gd87-08-12d1t10.wav
     5:56.63       62946620    ---   --   -----   gd87-08-12d2t01.wav
     5:51.52       62038748    ---   --   -----   gd87-08-12d2t02.wav
     7:12.36       76289516    ---   --   -----   gd87-08-12d2t03.wav
    11:39.28      123369500    ---   --   -----   gd87-08-12d2t04.wav
     7:13.49       76496492    ---   --   -----   gd87-08-12d2t05.wav
     4:49.37       51066668    ---   --   -----   gd87-08-12d2t06.wav
     6:22.73       67556540    ---   --   -----   gd87-08-12d2t07.wav
     3:54.63       41425820    ---   --   -----   gd87-08-12d2t08.wav
     8:15.06       87332156    ---   --   -----   gd87-08-12d2t09.wav
     6:20.54       67159052    ---   --   -----   gd87-08-12d2t10.wav
     5:00.39       53011772    ---   --   -----   gd87-08-12d2t11.wav
   136:40.04     1446490332 B                     (totals for 21 files)
Show Checksums
ffp
gd87-08-12d1t01.flac:0371207c63b6a5b4f6bd4534e3bc9e38
gd87-08-12d1t02.flac:1fff1685e112a71fdf4ab1bf5af49579
gd87-08-12d1t03.flac:f1455b18c941fe5418f9efc81e0c5f01
gd87-08-12d1t04.flac:c0bf82f12f8c1b98409bdbef32e36a7e
gd87-08-12d1t05.flac:2ea030ed7df950ed11d708a0469423c9
gd87-08-12d1t06.flac:e12fbd3e582b2b237c8b211abfd25306
gd87-08-12d1t07.flac:36986ba0f3875d8562a85989eec60d6d
gd87-08-12d1t08.flac:cf7df1596fb5f168c27780687b3bc470
gd87-08-12d1t09.flac:9f1a2c4e194afdba2795951751ca3fb2
gd87-08-12d1t10.flac:5d1c35d0656ba358eb87b7cd94fc5500
gd87-08-12d2t01.flac:29b5332eca50f95599240cfb424a2940
gd87-08-12d2t02.flac:2ea00be1cd3d2c09731350f78872b6f4
gd87-08-12d2t03.flac:c2821a42c939feb5246705c90175c59d
gd87-08-12d2t04.flac:d0e383b6aafb0db98c3b467bd1ac46ea
gd87-08-12d2t05.flac:dc34ee4344f3f72fd1a9e4969dfc9a52
gd87-08-12d2t06.flac:dfe7edf2f59c6e770f545d7afa2e97de
gd87-08-12d2t07.flac:cb5236922402456f833a1aa2243499e1
gd87-08-12d2t08.flac:e7c62eda1bf5a5d5e773f2e8e84e491b
gd87-08-12d2t09.flac:4eb9c38070814ff092e9564a385a26b8
gd87-08-12d2t10.flac:460c7e9f75f1b1b49cbbaaa3d29e0b64
gd87-08-12d2t11.flac:acaf5b14cfa48e878a850fac3a0c8ace
flac-md5
2c2ac6e6e26c3632ae865e594cb52c7e *gd87-08-12d1t01.flac
74992f45e86d3347e48647bcbb17a8c5 *gd87-08-12d1t02.flac
e37bffa63e92885fdb5dc6ef57d48a30 *gd87-08-12d1t03.flac
3e52551a4a79cc6cf0327afb9f93ae66 *gd87-08-12d1t04.flac
92f27f2b0a2209f30ecb7cbdbc986c57 *gd87-08-12d1t05.flac
aa1a43a8e1c1b6c4b4d70337c79cd992 *gd87-08-12d1t06.flac
285c2bdd26a75f09c1fb47632e341d5b *gd87-08-12d1t07.flac
bc38ad82ab8537467f73fa43a4baeb80 *gd87-08-12d1t08.flac
9c0a2d15e3b18367458faf18636f0fcc *gd87-08-12d1t09.flac
3ca8d82fe8e63936e5831d78af696c2a *gd87-08-12d1t10.flac
886b6de6714d69b667ba27452fe39ff6 *gd87-08-12d2t01.flac
a4f5c45a7815c1c35b96fc3742c90556 *gd87-08-12d2t02.flac
341c001359c9df231e103db2259de040 *gd87-08-12d2t03.flac
d0b1336ba3040a331847592914b732cc *gd87-08-12d2t04.flac
7388da68239228edd8f438fbe9e5fc9f *gd87-08-12d2t05.flac
cfa3ca73f0a79432a32fd496eec02188 *gd87-08-12d2t06.flac
96e594e882650e213099bd8a6f481993 *gd87-08-12d2t07.flac
4b97a0088e6ae2bcc21306f59541f67a *gd87-08-12d2t08.flac
f7e5d59a6df4adcc7bb853fbf23ed066 *gd87-08-12d2t09.flac
4610ad3e9e687049061f6c3919645197 *gd87-08-12d2t10.flac
c36a71a9f6cae93ef8785fecc0748909 *gd87-08-12d2t11.flac

Comments
Add Comment
Other Sources (comments)
Nak CM 100>MC>DAT>CD; via... (2) AUD (Nak... (2) flac16; Schoeps CMC... (0) AUD Source: Nakamichi... (0) flac16; Source:... (0) flac16; Recording... (0) flac16; Source Info:... (0)
Date User Comment